<?xml version="1.0" standalone="no"?>
<!DOCTYPE svg PUBLIC "-//W3C//DTD SVG 1.1//EN" "http://www.w3.org/Graphics/SVG/1.1/DTD/svg11.dtd" >
<svg xmlns="http://www.w3.org/2000/svg">
<metadata>Generated by IcoMoon</metadata>
<defs>
<font id="icomoon" horiz-adv-x="1024">
<font-face units-per-em="1024" ascent="960" descent="-64" />
<missing-glyph horiz-adv-x="1024" />
<glyph unicode="&#x20;" horiz-adv-x="512" d="" />
<glyph unicode="&#xe900;" glyph-name="1-grid" d="M0 960h1024v-1024h-1024v1024z" />
<glyph unicode="&#xe901;" glyph-name="4-grid" d="M0 362.662h426.667v-426.662h-426.667v426.662zM597.333 362.662h426.667v-426.662h-426.667v426.662zM0 960h426.667v-426.662h-426.667v426.662zM597.333 960h426.667v-426.662h-426.667v426.662z" />
<glyph unicode="&#xe902;" glyph-name="6-grid" d="M0 391.108h265.972v-284.442h-265.972v284.442zM385.662 391.108h265.973v-284.442h-265.973v284.442zM758.029 391.108h265.971v-284.442h-265.971v284.442zM0 789.333h265.972v-284.442h-265.972v284.442zM385.662 789.333h265.973v-284.442h-265.973v284.442zM758.029 789.333h265.971v-284.442h-265.971v284.442z" />
<glyph unicode="&#xe903;" glyph-name="9-grid" d="M285.767 960h-285.767v-273.86h285.768v273.86zM0 617.674v-296.68h285.768v296.68h-285.768zM0 252.527v-273.86h285.768v273.86h-285.768zM357.209-21.333h309.581v273.86h-309.581v-273.86zM738.231-21.333h285.769v273.86h-285.769v-273.86zM1024 320.994v296.68h-285.769v-296.68h285.769zM1024 686.14v273.86h-285.769v-273.86h285.769zM666.79 960h-309.581v-273.86h309.581v273.86zM357.209 320.994v296.68h309.581v-296.68h-309.581z" />
<glyph unicode="&#xe904;" glyph-name="add" d="M512 976c8.836 0 16-7.163 16-16v-496h496c8.836 0 16-7.164 16-16s-7.164-16-16-16h-496v-496c0-8.836-7.164-16-16-16s-16 7.164-16 16v496h-496c-8.837 0-16 7.164-16 16s7.163 16 16 16h496v496c0 8.837 7.164 16 16 16z" />
<glyph unicode="&#xe905;" glyph-name="alarm-bell" d="M422.439 898.328c24.96 21.242 56.661 32.906 89.433 32.906s64.478-11.665 89.434-32.906c22.571-19.21 38.289-45.117 44.966-73.826 65.562-26.22 122.082-71.092 162.505-129.148 42.142-60.525 64.772-132.487 64.858-206.236v-262.899c0.043-0.474 0.064-0.956 0.064-1.442 0-28.109 11.166-55.066 31.040-74.94 19.874-19.878 46.835-31.044 74.944-31.044 8.836 0 16-7.164 16-16s-7.164-16-16-16h-935.362c-8.837 0-16 7.164-16 16s7.163 16 16 16c28.109 0 55.066 11.166 74.942 31.044 19.876 19.874 31.042 46.831 31.042 74.94v264.32c0.032 73.74 22.618 145.711 64.729 206.242 40.392 58.062 96.893 102.94 162.441 129.162 6.675 28.709 22.395 54.617 44.965 73.827zM132.678 118.793h758.646c-3.183 2.654-6.259 5.461-9.212 8.418-25.515 25.515-40.009 59.994-40.405 96.034-0.051 0.503-0.073 1.015-0.073 1.532v264.303c-0.081 67.225-20.706 132.82-59.119 187.99s-92.774 97.277-155.797 120.678c-5.397 2.005-9.301 6.757-10.223 12.442-4.023 24.849-16.759 47.455-35.93 63.77s-43.52 25.275-68.693 25.275c-25.173 0-49.523-8.96-68.693-25.275-19.168-16.315-31.905-38.921-35.928-63.77-0.92-5.685-4.825-10.437-10.224-12.442-63.005-23.399-117.344-65.511-155.725-120.683-38.38-55.17-58.967-120.759-58.997-187.968 0 0.004 0 0 0 0v-264.32c0-36.595-14.538-71.693-40.415-97.566-2.954-2.957-6.029-5.764-9.212-8.418zM389.92 118.788c8.837 0 16-7.164 16-16 0-13.922 2.742-27.712 8.070-40.572 5.328-12.864 13.137-24.55 22.98-34.394 9.847-9.847 21.534-17.655 34.394-22.985 12.864-5.325 26.65-8.068 40.572-8.068s27.708 2.743 40.572 8.068c12.86 5.329 24.55 13.137 34.394 22.985 9.843 9.843 17.655 21.53 22.98 34.394 5.329 12.86 8.073 26.65 8.073 40.572 0 8.836 7.164 16 16 16s16-7.164 16-16c0-18.125-3.571-36.075-10.509-52.817-6.933-16.747-17.101-31.962-29.918-44.779-12.813-12.813-28.028-22.98-44.774-29.918-16.747-6.933-34.692-10.505-52.817-10.505s-36.070 3.571-52.817 10.505c-16.742 6.938-31.957 17.105-44.774 29.918-12.816 12.817-22.982 28.032-29.918 44.779-6.936 16.742-10.506 34.692-10.506 52.817 0 8.836 7.164 16 16 16z" />
<glyph unicode="&#xe906;" glyph-name="alarm-bell-check" d="M308.672 77.696c8.836 0 16-7.159 16-16 0-17.327 6.884-33.95 19.139-46.204s28.875-19.14 46.205-19.14c17.33 0 33.951 6.886 46.204 19.14s19.14 28.877 19.14 46.204c0 8.841 7.164 16 16 16s16-7.159 16-16c0-25.813-10.257-50.577-28.51-68.83-18.257-18.257-43.017-28.514-68.834-28.514s-50.577 10.257-68.833 28.514c-18.255 18.253-28.511 43.017-28.511 68.83 0 8.841 7.163 16 16 16zM306.792 653.205c22.072 22.072 52.009 34.472 83.223 34.472 7.908-0.012 15.819-0.833 23.56-2.45 8.65-1.807 14.196-10.284 12.39-18.934s-10.284-14.197-18.933-12.39c-5.601 1.17-11.307 1.765-17.029 1.774-22.723-0.003-44.516-9.031-60.584-25.1-16.071-16.071-25.1-37.868-25.1-60.596 0-6.46-3.884-12.286-9.848-14.77-45.265-18.854-83.935-50.686-111.135-91.488-27.2-40.798-41.711-88.738-41.705-137.771v-182.98c0-24.205-9.017-47.484-25.191-65.344h547.022c-7.484 8.269-13.504 17.766-17.779 28.092-4.894 11.81-7.411 24.469-7.411 37.252v182.925c-0.145 9.894-0.887 19.772-2.223 29.577-1.19 8.755 4.941 16.819 13.696 18.010s16.819-4.941 18.014-13.696c1.51-11.119 2.351-22.323 2.513-33.545v-183.27c0-8.58 1.69-17.075 4.975-25.003 3.281-7.932 8.094-15.134 14.165-21.201 6.067-6.067 13.269-10.88 21.197-14.165s16.427-4.975 25.007-4.975c8.836 0 16-7.164 16-16s-7.164-16-16-16h-691.328c-8.836 0-16 7.164-16 16s7.163 16 16 16c17.33 0 33.951 6.886 46.205 19.14s19.139 28.877 19.139 46.204v182.976c0 0 0 0 0 0-0.006 55.351 16.375 109.47 47.080 155.529 28.812 43.217 69.025 77.522 116.093 99.173 2.484 27.303 14.445 53.012 33.988 72.556zM898.381 762.316c6.438-6.051 6.754-16.177 0.704-22.616l-166.528-177.216c-2.935-3.125-7.006-4.941-11.294-5.039s-8.435 1.529-11.511 4.517l-118.976 115.52c-6.34 6.156-6.49 16.285-0.333 22.625 6.153 6.34 16.286 6.489 22.622 0.334l107.311-104.191 155.388 165.364c6.054 6.44 16.179 6.755 22.618 0.703zM635.166 915.406c31.821 13.332 65.98 20.199 100.48 20.199 34.505 0 68.663-6.866 100.484-20.199s60.672-32.864 84.873-57.458c24.196-24.593 43.26-53.757 56.073-85.791 12.783-31.954 19.098-66.127 18.573-100.537 0.525-34.41-5.79-68.583-18.573-100.536-12.813-32.034-31.876-61.196-56.073-85.789-24.201-24.597-53.052-44.126-84.873-57.459s-65.98-20.198-100.484-20.198c-34.5 0-68.659 6.865-100.48 20.198s-60.672 32.862-84.873 57.459c-24.196 24.593-43.26 53.755-56.073 85.789-12.787 31.953-19.098 66.126-18.573 100.536-0.525 34.41 5.786 68.583 18.573 100.537 12.813 32.034 31.876 61.197 56.073 85.791 24.201 24.593 53.052 44.125 84.873 57.458zM735.646 903.604c-30.255 0-60.207-6.021-88.115-17.713-27.904-11.692-53.205-28.82-74.428-50.387-21.218-21.567-37.935-47.142-49.173-75.233s-16.772-58.139-16.286-88.392l0.009-0.518c-0.486-30.252 5.039-60.3 16.277-88.392s27.955-53.664 49.173-75.232c21.222-21.568 46.524-38.694 74.428-50.389 27.908-11.691 57.86-17.711 88.115-17.711 30.259 0 60.211 6.020 88.119 17.711 27.904 11.695 53.205 28.821 74.428 50.389 21.218 21.568 37.935 47.14 49.173 75.232s16.772 58.139 16.282 88.392l-0.004 0.518c0.486 30.252-5.039 60.3-16.277 88.391s-27.955 53.666-49.173 75.233c-21.222 21.567-46.524 38.695-74.428 50.387-27.908 11.692-57.86 17.713-88.119 17.713z" />
<glyph unicode="&#xe907;" glyph-name="alarm-bell-disable" d="M308.672 77.696c8.836 0 16-7.159 16-16 0-17.327 6.884-33.95 19.139-46.204s28.875-19.14 46.205-19.14c17.33 0 33.951 6.886 46.204 19.14s19.14 28.877 19.14 46.204c0 8.841 7.164 16 16 16s16-7.159 16-16c0-25.813-10.257-50.577-28.51-68.83-18.257-18.257-43.017-28.514-68.834-28.514s-50.577 10.257-68.833 28.514c-18.255 18.253-28.511 43.017-28.511 68.83 0 8.841 7.163 16 16 16zM306.792 653.205c22.072 22.072 52.009 34.472 83.223 34.472 7.908-0.012 15.819-0.833 23.56-2.45 8.65-1.807 14.196-10.284 12.39-18.934s-10.284-14.197-18.933-12.39c-5.601 1.17-11.307 1.765-17.029 1.774-22.723-0.003-44.516-9.031-60.584-25.1-16.071-16.071-25.1-37.868-25.1-60.596 0-6.46-3.884-12.286-9.848-14.77-45.265-18.854-83.935-50.686-111.135-91.488-27.2-40.798-41.711-88.738-41.705-137.771v-182.98c0-24.205-9.017-47.484-25.191-65.344h547.022c-7.484 8.269-13.504 17.766-17.779 28.092-4.894 11.81-7.411 24.469-7.411 37.252v182.925c-0.145 9.894-0.887 19.772-2.223 29.577-1.19 8.755 4.941 16.819 13.696 18.010s16.819-4.941 18.014-13.696c1.51-11.119 2.351-22.323 2.513-33.545v-183.27c0-8.58 1.69-17.075 4.975-25.003 3.281-7.932 8.094-15.134 14.165-21.201 6.067-6.067 13.269-10.88 21.197-14.165s16.427-4.975 25.007-4.975c8.836 0 16-7.164 16-16s-7.164-16-16-16h-691.328c-8.836 0-16 7.164-16 16s7.163 16 16 16c17.33 0 33.951 6.886 46.205 19.14s19.139 28.877 19.139 46.204v182.976c0 0 0 0 0 0-0.006 55.351 16.375 109.47 47.080 155.529 28.812 43.217 69.025 77.522 116.093 99.173 2.484 27.303 14.445 53.012 33.988 72.556zM635.166 915.406c31.821 13.332 65.98 20.199 100.48 20.199 34.505 0 68.663-6.866 100.484-20.199s60.672-32.864 84.873-57.458c24.196-24.593 43.26-53.757 56.073-85.791 12.783-31.954 19.098-66.127 18.573-100.537 0.525-34.41-5.79-68.583-18.573-100.536-12.813-32.034-31.876-61.196-56.073-85.789-24.201-24.597-53.052-44.126-84.873-57.459s-65.98-20.198-100.484-20.198c-34.5 0-68.659 6.865-100.48 20.198s-60.672 32.862-84.873 57.459c-24.196 24.593-43.26 53.755-56.073 85.789-12.787 31.953-19.098 66.126-18.573 100.536-0.525 34.41 5.786 68.583 18.573 100.537 12.813 32.034 31.876 61.197 56.073 85.791 24.201 24.593 53.052 44.125 84.873 57.458zM735.646 903.604c-30.255 0-60.207-6.021-88.115-17.713-27.904-11.692-53.205-28.82-74.428-50.387-21.218-21.567-37.935-47.142-49.173-75.233s-16.772-58.139-16.286-88.392l0.009-0.518c-0.486-30.252 5.039-60.3 16.277-88.392s27.955-53.664 49.173-75.232c21.222-21.568 46.524-38.694 74.428-50.389 27.908-11.691 57.86-17.711 88.115-17.711 30.259 0 60.211 6.020 88.119 17.711 27.904 11.695 53.205 28.821 74.428 50.389 21.218 21.568 37.935 47.14 49.173 75.232s16.772 58.139 16.282 88.392l-0.004 0.518c0.486 30.252-5.039 60.3-16.277 88.391s-27.955 53.666-49.173 75.233c-21.222 21.567-46.524 38.695-74.428 50.387-27.908 11.692-57.86 17.713-88.119 17.713zM856.755 792.751c6.246-6.249 6.246-16.379 0-22.627l-219.584-219.584c-6.251-6.249-16.38-6.249-22.63 0-6.246 6.248-6.246 16.379 0 22.627l219.584 219.584c6.251 6.248 16.38 6.248 22.63 0zM614.541 792.751c6.251 6.248 16.38 6.248 22.63 0l219.584-219.584c6.246-6.249 6.246-16.379 0-22.627-6.251-6.249-16.38-6.249-22.63 0l-219.584 219.584c-6.246 6.248-6.246 16.379 0 22.627z" />
<glyph unicode="&#xe908;" glyph-name="alarm-bell-off" d="M429.76 773.648c21.982 21.437 51.473 33.435 82.176 33.435s60.19-11.998 82.172-33.435c19.447-18.965 31.659-43.99 34.748-70.763 4.267-1.912 8.469-3.966 12.599-6.159 7.804-4.143 10.773-13.83 6.63-21.635-4.147-7.805-13.833-10.773-21.636-6.629-6.054 3.215-12.292 6.078-18.675 8.575-5.999 2.346-10.010 8.061-10.167 14.5-0.563 22.348-9.835 43.593-25.839 59.202s-37.478 24.345-59.831 24.345c-22.357 0-43.827-8.736-59.831-24.345s-25.276-36.853-25.838-59.202c-0.159-6.312-4.015-11.941-9.843-14.369-45.265-18.854-83.935-50.687-111.135-91.487s-41.711-88.739-41.705-137.771v-149.252c0-8.836-7.163-16-16-16s-16 7.164-16 16v149.248c-0.006 55.351 16.375 109.469 47.080 155.526 28.861 43.292 69.162 77.641 116.333 99.285 3.058 26.837 15.278 51.927 34.764 70.932zM687.812 646.444c6.298 6.199 16.431 6.121 22.63-0.177 52.062-52.882 81.429-123.997 81.843-198.208v-183.066c0-17.331 6.886-33.95 19.14-46.204s28.877-19.14 46.204-19.14c8.836 0 16-7.164 16-16s-7.164-16-16-16h-609.983c-8.836 0-16 7.164-16 16s7.164 16 16 16h537.833c-16.175 17.86-25.195 41.135-25.195 65.344v182.929c-0.38 65.856-26.445 128.963-72.649 175.894-6.199 6.297-6.118 16.427 0.175 22.627zM430.622 199.646c8.836 0 16-7.164 16-16 0-17.331 6.886-33.95 19.14-46.204s28.877-19.14 46.204-19.14c17.331 0 33.954 6.886 46.208 19.14s19.136 28.873 19.136 46.204c0 8.836 7.164 16 16 16s16-7.164 16-16c0-25.818-10.253-50.577-28.51-68.834-18.257-18.253-43.017-28.51-68.834-28.51-25.813 0-50.577 10.257-68.83 28.51-18.257 18.257-28.512 43.017-28.512 68.834 0 8.836 7.164 16 15.998 16zM990.993 926.996c6.251-6.248 6.251-16.379 0-22.627l-935.359-935.362c-6.248-6.246-16.379-6.246-22.627 0-6.248 6.251-6.248 16.38 0 22.63l935.36 935.359c6.246 6.248 16.38 6.248 22.626 0z" />
<glyph unicode="&#xe909;" glyph-name="alert-circle" d="M512 667.136c8.836 0 16-7.164 16-16v-284.672c0-8.836-7.164-16-16-16s-16 7.164-16 16v284.672c0 8.836 7.164 16 16 16zM511.339 303.637c-3.439-0.064-6.827-0.815-9.971-2.206-3.145-1.387-5.978-3.392-8.341-5.888-2.359-2.5-4.198-5.444-5.406-8.666-1.207-3.217-1.762-6.643-1.626-10.078 0.213-6.929 3.119-13.5 8.098-18.325 4.975-4.826 11.639-7.518 18.569-7.518 3.439 0.064 6.827 0.815 9.971 2.202 3.145 1.391 5.978 3.396 8.341 5.892 2.359 2.5 4.198 5.444 5.406 8.661 1.207 3.221 1.762 6.647 1.626 10.082-0.205 6.758-2.97 13.188-7.735 17.988-4.77 4.796-11.179 7.603-17.937 7.855h-0.499zM512-32c-265.097 0-480 214.903-480 480s214.903 480 480 480c265.097 0 480-214.903 480-480s-214.903-480-480-480zM512-64c282.769 0 512 229.231 512 512s-229.231 512-512 512c-282.77 0-512-229.23-512-512s229.23-512 512-512z" />
<glyph unicode="&#xe90a;" d="M63.999 789.333h896.001c35.328 0 64-26.592 64-59.388v-563.921c0-32.768-28.672-59.358-64-59.358h-896.001c-35.36-0.004-63.999 26.59-63.999 59.354v563.925c0 32.796 28.671 59.388 63.999 59.388z" />
<glyph unicode="&#xe90b;" d="M165.121 575.992l-101.121-223.779h121.056l15.008 35.682h34.304l15.008-35.682h133.248v27.234l11.873-27.234h68.928l11.874 27.81v-27.81h277.12l33.698 34.752 31.552-34.752 142.332-0.286-101.44 111.552 101.44 112.512h-140.126l-32.802-34.11-30.558 34.11h-301.47l-25.89-57.758-26.494 57.758h-120.803v-26.305l-13.439 26.305h-103.297zM188.545 544.215h59.008l67.073-151.746v151.746h64.642l51.806-108.802 47.748 108.802h64.316v-160.574h-39.134l-0.32 125.824-57.058-125.824h-35.009l-57.376 125.824v-125.824h-80.512l-15.264 35.998h-82.464l-15.232-35.968h-43.138l70.913 160.544zM578.944 544.215h159.138l48.67-52.576 50.244 52.576h48.67l-73.954-80.706 73.954-79.774h-50.88l-48.67 53.184-50.5-53.184h-156.672v160.48zM217.251 517.047l-27.168-64.128h54.305l-27.137 64.128zM618.244 510.967v-29.312h86.814v-32.67h-86.814v-32.004h97.374l45.248 47.134-43.328 46.882-99.294-0.030z" />
<glyph unicode="&#xe90c;" glyph-name="arrow-back" d="M246.747 592.030c7.406 6.094 7.406 15.973 0 22.067s-19.412 6.093-26.818 0l-214.285-176.324c-0.31-0.247-0.609-0.508-0.897-0.777-2.955-2.752-4.748-6.37-4.748-10.33 0-2.035 0.473-3.977 1.333-5.76 0.925-1.92 2.332-3.721 4.221-5.274l214.375-176.397c7.406-6.093 19.412-6.093 26.818 0s7.406 15.974 0 22.067l-182.004 149.76h940.296c10.47 0 18.961 6.985 18.961 15.603s-8.491 15.603-18.961 15.603h-940.295l182.003 149.76z" />
<glyph unicode="&#xe90d;" glyph-name="arrow-down" d="M992.533 672.759c6.31-6.186 6.413-16.316 0.226-22.627l-454.084-463.197c-3.507-3.554-7.71-6.302-12.279-8.154-4.57-1.847-9.459-2.782-14.362-2.782-4.907 0-9.796 0.934-14.366 2.782-4.57 1.852-8.772 4.599-12.279 8.154l-0.034 0.038-454.113 463.158c-6.186 6.31-6.086 16.44 0.223 22.627s16.44 6.086 22.626-0.223l454.077-463.123c-0.004 0.004 0-0.004 0 0 0.32-0.324 0.823-0.691 1.506-0.969 0.691-0.277 1.502-0.444 2.359-0.444s1.664 0.166 2.355 0.444c0.683 0.277 1.173 0.631 1.498 0.96 0.004 0-0.004-0.004 0 0l454.020 463.13c6.187 6.31 16.316 6.411 22.626 0.225z" />
<glyph unicode="&#xe90e;" glyph-name="arrow-left" d="M736.759 928.534c-6.187 6.31-16.316 6.411-22.626 0.225l-463.197-454.084c-3.556-3.507-6.304-7.71-8.154-12.279s-2.783-9.459-2.783-14.362c0-4.907 0.934-9.796 2.783-14.366s4.598-8.772 8.154-12.279l0.036-0.034 463.16-454.114c6.306-6.187 16.439-6.084 22.626 0.226 6.187 6.306 6.084 16.439-0.226 22.626l-463.121 454.076c0.003-0.004-0.003 0 0 0-0.326 0.32-0.691 0.823-0.967 1.506-0.279 0.691-0.445 1.502-0.445 2.359s0.166 1.664 0.445 2.355c0.276 0.683 0.631 1.173 0.956 1.498 0.004 0.004-0.003-0.004 0 0l463.132 454.021c6.31 6.186 6.413 16.316 0.226 22.626z" />
<glyph unicode="&#xe90f;" glyph-name="arrow-next" d="M777.254 674.403c-7.407 6.771-7.407 17.748 0 24.519 7.403 6.77 19.409 6.77 26.816 0l214.285-195.912c0.311-0.282 0.61-0.572 0.896-0.866 2.957-3.059 4.749-7.078 4.749-11.477 0-2.261-0.474-4.42-1.335-6.4-0.922-2.133-2.33-4.134-4.22-5.858l-214.374-195.998c-7.407-6.771-19.413-6.771-26.816 0-7.407 6.771-7.407 17.749 0 24.521l182.003 166.4h-940.295c-10.473 0-18.963 7.761-18.963 17.335s8.49 17.34 18.963 17.34h940.295l-182.003 166.397z" />
<glyph unicode="&#xe910;" glyph-name="arrow-refresh" horiz-adv-x="1067" d="M393.659 827.697c75.064 14.938 152.871 7.271 223.582-22.030s131.149-78.922 173.67-142.586c42.517-63.664 65.216-138.511 65.216-215.081v-11.494l-115.319 131.816c-7.185 8.215-19.669 9.046-27.878 1.856-8.213-7.189-9.041-19.676-1.856-27.891l149.871-171.313c4.049-4.629 10.022-7.108 16.158-6.703l0.171 0.009c6.827 0.474 12.698 4.42 15.863 10.082l127.543 191.429c6.050 9.083 3.597 21.355-5.483 27.409s-21.346 3.599-27.396-5.484l-92.164-138.328c-0.273 83.904-25.267 165.876-71.872 235.657-46.865 70.165-113.472 124.852-191.403 157.145s-163.682 40.743-246.412 24.28c-82.73-16.463-158.723-57.099-218.368-116.77s-100.264-135.695-116.72-218.46c-16.456-82.765-8.010-168.555 24.27-246.515 32.28-77.965 86.944-144.602 157.079-191.484s152.592-71.906 236.944-71.906c10.91 0 19.755 8.849 19.755 19.763 0 10.918-8.845 19.767-19.755 19.767-76.536 0-151.354 22.703-214.991 65.246-63.637 42.539-113.237 103.002-142.526 173.739-29.289 70.741-36.952 148.582-22.021 223.68 14.932 75.095 51.787 144.076 105.906 198.218s123.071 91.013 198.137 105.951z" />
<glyph unicode="&#xe911;" glyph-name="arrow-return" d="M20.48 605.237c0 8.946 7.255 16.198 16.204 16.198h661.93c167.408 0 304.906-157.133 304.906-340.15 0-183.022-137.499-340.152-304.906-340.152h-108.97c-8.95 0-16.204 7.254-16.204 16.2s7.254 16.196 16.204 16.196h108.97c146.088 0 272.499 139.006 272.499 307.757s-126.411 307.755-272.499 307.755h-661.93c-8.949 0-16.204 7.252-16.204 16.198zM314.417 920.030c6.509-5.966 7.037-16.177 1.179-22.806l-257.934-291.94 257.934-291.94c5.857-6.631 5.329-16.839-1.179-22.807-6.509-5.964-16.533-5.427-22.39 1.2l-267.478 302.744c-5.426 6.141-5.426 15.463 0 21.605l267.478 302.742c5.857 6.629 15.881 7.167 22.39 1.201z" />
<glyph unicode="&#xe912;" glyph-name="arrow-right" d="M287.241 928.534c6.186 6.31 16.316 6.411 22.627 0.225l463.197-454.084c3.554-3.507 6.302-7.71 8.154-12.279 1.847-4.57 2.782-9.459 2.782-14.362 0-4.907-0.934-9.796-2.782-14.366-1.852-4.57-4.599-8.772-8.154-12.279l-0.038-0.034-463.158-454.114c-6.31-6.187-16.44-6.084-22.627 0.226-6.186 6.306-6.086 16.439 0.223 22.626l463.123 454.076c-0.004-0.004 0.004 0 0 0 0.324 0.32 0.691 0.823 0.969 1.506 0.277 0.691 0.444 1.502 0.444 2.359s-0.166 1.664-0.444 2.355c-0.277 0.683-0.631 1.173-0.96 1.498 0 0.004 0.004-0.004 0 0l-463.13 454.021c-6.31 6.186-6.411 16.316-0.225 22.626z" />
<glyph unicode="&#xe913;" glyph-name="arrow-shrink" d="M1018.445 954.446c7.407-7.405 7.407-19.412 0-26.818l-310.609-310.611h168.585c10.47 0 18.961-8.49 18.961-18.963s-8.491-18.963-18.961-18.963h-214.366c-2.756 0-5.376 0.589-7.744 1.647-1.749 0.782-3.405 1.842-4.898 3.18-0.503 0.45-0.981 0.927-1.434 1.428-3.038 3.363-4.885 7.819-4.885 12.707v214.364c0 10.473 8.491 18.963 18.961 18.963 10.475 0 18.965-8.49 18.965-18.963v-168.583l310.609 310.611c7.407 7.406 19.413 7.406 26.816 0zM379.952 303.906c-0.899 2.722-2.432 5.282-4.598 7.45-1.934 1.933-4.182 3.362-6.58 4.284-2.119 0.819-4.422 1.267-6.83 1.267h-214.364c-10.473 0-18.963-8.486-18.963-18.961s8.49-18.961 18.963-18.961h168.584l-310.61-310.613c-7.406-7.407-7.406-19.413 0-26.816 7.405-7.407 19.412-7.407 26.818 0l310.609 310.609v-168.585c0-10.47 8.49-18.961 18.963-18.961s18.963 8.491 18.963 18.961v214.366c0 0.751-0.044 1.493-0.129 2.223l-0.826 3.738z" />
<glyph unicode="&#xe914;" glyph-name="arrow-swap" horiz-adv-x="1067" d="M453.577 787.050c62.306 14.529 127.45 12.133 188.48-6.934 61.035-19.067 115.661-54.091 158.050-101.332 6.609-7.363 18.027-8.060 25.506-1.556 7.484 6.504 8.188 17.745 1.583 25.108-46.724 52.069-106.935 90.672-174.204 111.689-67.273 21.016-139.076 23.657-207.753 7.64-52.148-12.232-101.336-34.526-144.675-65.582s-79.993-70.263-107.84-115.352c-27.848-45.090-46.336-95.167-54.397-147.334-4.053-26.236-5.429-52.74-4.145-79.117l-78.068 114.432c-5.564 8.157-16.791 10.329-25.076 4.852-8.285-5.475-10.491-16.53-4.927-24.684l121.976-178.795c3.171-4.646 8.38-7.552 14.060-7.846 5.68-0.29 11.168 2.065 14.813 6.366l140.251 165.35c6.397 7.543 5.371 18.761-2.289 25.054-7.661 6.298-19.057 5.286-25.453-2.253l-115.666-136.367c-5.333 35.635-5.266 71.919 0.256 107.657 7.342 47.518 24.183 93.132 49.548 134.203s58.752 76.783 98.229 105.071c39.473 28.285 84.25 48.586 131.742 59.729zM922.065 522.3c-3.166 4.646-8.375 7.556-14.054 7.851-5.513 0.286-10.842-1.924-14.485-5.978-1.387-1.199-2.577-2.603-3.533-4.151l-137.122-161.583c-6.4-7.539-5.376-18.756 2.283-25.054s19.055-5.291 25.455 2.249l111.113 130.935c2.918-74.278-18.018-147.972-60.412-210.334-50.278-73.963-127.036-126.549-214.959-147.264-58.372-13.628-119.309-12.412-177.075 3.533s-110.464 46.097-153.13 87.62c-7.097 6.908-18.539 6.839-25.555-0.145s-6.951-18.249 0.146-25.156c47.026-45.764 105.109-78.997 168.781-96.576 63.676-17.574 130.846-18.914 195.187-3.887 96.781 22.797 181.303 80.683 236.642 162.091 43.157 63.488 66.112 137.651 66.769 213.116l85.845-125.952c5.559-8.158 16.785-10.334 25.075-4.86 8.286 5.474 10.496 16.525 4.937 24.683l-121.907 178.863z" />
<glyph unicode="&#xe915;" glyph-name="arrow-up" d="M31.466 180.574c-6.31 6.187-6.411 16.316-0.225 22.626l454.084 463.197c3.507 3.556 7.71 6.304 12.279 8.154s9.459 2.783 14.362 2.783c4.907 0 9.796-0.934 14.366-2.783s8.772-4.598 12.279-8.154l0.034-0.036 454.114-463.16c6.187-6.306 6.084-16.439-0.226-22.626-6.306-6.187-16.439-6.084-22.626 0.226l-454.076 463.121c0.004-0.003 0 0.003 0 0-0.32 0.326-0.823 0.691-1.506 0.967-0.691 0.279-1.502 0.445-2.359 0.445s-1.664-0.166-2.355-0.445c-0.683-0.276-1.173-0.631-1.498-0.957-0.004-0.003 0.004 0.004 0 0l-454.021-463.131c-6.186-6.31-16.316-6.413-22.626-0.226z" />
<glyph unicode="&#xe916;" glyph-name="ascending-sort" d="M26.667 746.667c0 8.837 7.163 16 16 16h938.667c8.836 0 16-7.163 16-16s-7.164-16-16-16h-938.667c-8.837 0-16 7.163-16 16zM26.667 426.667c0 8.836 7.163 16 16 16h617.417c8.836 0 16-7.164 16-16s-7.164-16-16-16h-617.417c-8.837 0-16 7.164-16 16zM26.667 106.667c0 8.836 7.163 16 16 16h304.573c8.837 0 16-7.164 16-16s-7.163-16-16-16h-304.573c-8.837 0-16 7.164-16 16z" />
<glyph unicode="&#xe917;" glyph-name="bag" d="M512.128 901.333c43.396 0 85.099-17.253 116.139-48.118 31.010-30.837 48.896-72.806 49.754-116.911v-45.32h-331.788v45.32c0.858 44.105 18.742 86.074 49.753 116.911 31.040 30.865 72.742 48.118 116.143 48.118zM710.020 690.985v45.472l-0.004 0.297c-0.973 52.407-22.204 102.376-59.187 139.152-36.988 36.783-86.788 57.427-138.701 57.427-51.917 0-101.717-20.644-138.706-57.427-36.983-36.776-58.211-86.745-59.186-139.152l-0.003-45.77h-105.262c-15.103-0.011-29.612-5.835-40.581-16.235-10.959-10.39-17.578-24.567-18.584-39.649 0-0.005 0 0.005 0 0l-36.41-532.462c-0.929-13.986-1.396-28.066-1.396-42.052 0-25.903 10.152-50.786 28.29-69.163 18.144-18.389 42.799-28.757 68.552-28.757h606.31c25.754 0 50.411 10.368 68.553 28.757 18.129 18.368 28.279 43.234 28.292 69.12 0 0.009 0-0.013 0 0l-16 0.043h16c0-0.013 0-0.030 0-0.043 0.064 14.025-0.401 28.087-1.331 42.061l-36.412 532.48c0 0.001 0 0 0 0-1.003 15.087-7.62 29.271-18.586 39.665-10.965 10.4-25.463 16.224-40.567 16.235h-105.079zM678.020 658.985v-106.88c0-8.837 7.164-16 16-16s16 7.163 16 16v106.88h105.054c6.865-0.005 13.508-2.649 18.577-7.456 5.077-4.814 8.201-11.443 8.674-18.564l36.412-532.48c0 0.004 0 0 0 0 0.879-13.274 1.318-26.594 1.259-39.821v-0.077c0-17.553-6.882-34.342-19.068-46.686-12.177-12.339-28.646-19.234-45.777-19.234h-606.31c-17.128 0-33.598 6.895-45.775 19.234-12.184 12.343-19.066 29.133-19.066 46.686 0 13.274 0.441 26.611 1.322 39.881 0-0.004 0 0.009 0 0l36.41 532.466c0.473 7.121 3.597 13.781 8.675 18.595 5.071 4.808 11.714 7.452 18.576 7.456h105.25v-106.88c0-8.837 7.163-16 16-16s16 7.163 16 16v106.88h331.788zM344.36 332.941c0.066 0.060 0.131 0.124 0.194 0.188 1.079 1.092 1.647 2.53 1.647 3.985s-0.569 2.893-1.647 3.985c-0.063 0.064-0.128 0.128-0.194 0.188-1.069 0.986-2.504 1.57-4.037 1.57s-2.969-0.585-4.038-1.57c-0.067-0.060-0.131-0.124-0.195-0.188-1.079-1.092-1.647-2.53-1.647-3.985s0.568-2.893 1.647-3.985c0.064-0.064 0.128-0.128 0.195-0.188 1.068-0.99 2.504-1.57 4.038-1.57s2.968 0.58 4.037 1.57zM321.777 355.605c4.882 4.945 11.549 7.765 18.545 7.765s13.663-2.82 18.545-7.765c4.875-4.941 7.576-11.597 7.576-18.492s-2.701-13.551-7.576-18.492c-4.881-4.945-11.548-7.765-18.545-7.765s-13.664 2.82-18.545 7.765c-4.875 4.941-7.576 11.597-7.576 18.492s2.701 13.551 7.576 18.492zM691.072 332.941c0.068 0.060 0.132 0.124 0.196 0.188 1.075 1.092 1.647 2.53 1.647 3.985s-0.572 2.893-1.647 3.985c-0.064 0.064-0.128 0.128-0.196 0.188-1.067 0.986-2.505 1.57-4.036 1.57s-2.97-0.585-4.036-1.57c-0.068-0.060-0.132-0.124-0.196-0.188-1.079-1.092-1.647-2.53-1.647-3.985s0.567-2.893 1.647-3.985c0.064-0.064 0.128-0.128 0.196-0.188 1.067-0.99 2.505-1.57 4.036-1.57s2.97 0.58 4.036 1.57zM668.489 355.605c4.885 4.945 11.55 7.765 18.547 7.765s13.662-2.82 18.543-7.765c4.877-4.941 7.578-11.597 7.578-18.492s-2.701-13.551-7.578-18.492c-4.881-4.945-11.546-7.765-18.543-7.765s-13.662 2.82-18.547 7.765c-4.873 4.941-7.573 11.597-7.573 18.492s2.701 13.551 7.573 18.492z" />
<glyph unicode="&#xe918;" glyph-name="barcode" d="M247.37 631.523c8.836 0 16-7.163 16-16v-223.988c0-8.836-7.164-16-16-16s-16 7.164-16 16v223.988c0 8.837 7.163 16 16 16zM329.005 631.523c8.837 0 16-7.163 16-16v-223.988c0-8.836-7.163-16-16-16s-16 7.164-16 16v223.988c0 8.837 7.164 16 16 16zM410.6 631.523c8.837 0 16-7.163 16-16v-223.988c0-8.836-7.163-16-16-16s-16 7.164-16 16v223.988c0 8.837 7.163 16 16 16zM533.035 631.523c8.836 0 16-7.163 16-16v-223.988c0-8.836-7.164-16-16-16-8.841 0-16 7.164-16 16v223.988c0 8.837 7.159 16 16 16zM614.669 631.523c8.836 0 16-7.163 16-16v-223.988c0-8.836-7.164-16-16-16s-16 7.164-16 16v223.988c0 8.837 7.164 16 16 16zM696.303 631.523c8.836 0 16-7.163 16-16v-223.988c0-8.836-7.164-16-16-16s-16 7.164-16 16v223.988c0 8.837 7.164 16 16 16zM777.899 631.523c8.836 0 16-7.163 16-16v-223.988c0-8.836-7.164-16-16-16s-16 7.164-16 16v223.988c0 8.837 7.164 16 16 16zM859.533 631.523c8.836 0 16-7.163 16-16v-335.984c0-8.836-7.164-16-16-16s-16 7.164-16 16v335.984c0 8.837 7.164 16 16 16zM165.732 631.52c8.837 0 16-7.164 16-16v-335.985c0-8.836-7.163-16-16-16s-16 7.164-16 16v335.985c0 8.836 7.163 16 16 16zM247.37 332.855c8.836 0 16-7.164 16-16v-37.316c0-8.836-7.164-16-16-16s-16 7.164-16 16v37.316c0 8.836 7.163 16 16 16zM329.005 332.855c8.837 0 16-7.164 16-16v-37.316c0-8.836-7.163-16-16-16s-16 7.164-16 16v37.316c0 8.836 7.164 16 16 16zM410.6 332.855c8.837 0 16-7.164 16-16v-37.316c0-8.836-7.163-16-16-16s-16 7.164-16 16v37.316c0 8.836 7.163 16 16 16zM533.035 332.855c8.836 0 16-7.164 16-16v-37.316c0-8.836-7.164-16-16-16-8.841 0-16 7.164-16 16v37.316c0 8.836 7.159 16 16 16zM614.669 332.855c8.836 0 16-7.164 16-16v-37.316c0-8.836-7.164-16-16-16s-16 7.164-16 16v37.316c0 8.836 7.164 16 16 16zM696.303 332.855c8.836 0 16-7.164 16-16v-37.316c0-8.836-7.164-16-16-16s-16 7.164-16 16v37.316c0 8.836 7.164 16 16 16zM777.899 332.855c8.836 0 16-7.164 16-16v-37.316c0-8.836-7.164-16-16-16s-16 7.164-16 16v37.316c0 8.836 7.164 16 16 16zM26 671.354c0 50.074 40.593 90.667 90.667 90.667h790.665c50.074 0 90.667-40.593 90.667-90.667v-446.714c0-50.074-40.593-90.667-90.667-90.667h-790.666c-50.074 0-90.666 40.593-90.666 90.667v446.714zM116.667 730.021c-32.401 0-58.667-26.266-58.667-58.667v-446.714c0-32.397 26.266-58.667 58.666-58.667h790.666c32.401 0 58.667 26.27 58.667 58.667v446.714c0 32.401-26.266 58.667-58.667 58.667h-790.665z" />
<glyph unicode="&#xe919;" glyph-name="barcode-tag" d="M31.353 928.647c6.248 6.248 16.379 6.248 22.628 0l225.49-225.49c16.999 12.279 37.542 19.008 58.78 19.008 26.624 0 52.157-10.576 70.982-29.402s29.402-44.359 29.402-70.982-10.577-52.157-29.402-70.982c-18.826-18.827-44.359-29.399-70.982-29.399s-52.157 10.573-70.982 29.399c-18.825 18.826-29.402 44.359-29.402 70.982 0 21.222 6.72 41.751 18.982 58.743l-225.496 225.495c-6.248 6.249-6.248 16.379 0 22.628zM279.912 657.46c-6.516-10.654-10.045-22.985-10.045-35.679 0-18.137 7.205-35.53 20.029-48.355s30.218-20.029 48.355-20.029c18.137 0 35.53 7.205 48.355 20.029s20.029 30.218 20.029 48.355c0 18.137-7.205 35.53-20.029 48.355s-30.218 20.029-48.355 20.029c-12.71 0-25.056-3.538-35.719-10.070l25.689-25.689c6.248-6.248 6.248-16.379 0-22.627s-16.379-6.248-22.627 0l-25.681 25.681zM476.796 811.514c-8.299 3.443-17.199 5.214-26.189 5.211h-238.852c-8.837 0-16 7.163-16 16s7.163 16 16 16h238.844c-0.004 0 0 0 0 0 13.197 0.004 26.27-2.597 38.46-7.653 12.186-5.055 23.258-12.465 32.572-21.805zM521.63 819.268l443.008-443.264c9.314-9.323 16.704-20.395 21.743-32.572 5.035-12.177 7.625-25.229 7.62-38.409-0.009-13.18-2.611-26.227-7.663-38.4-5.047-12.173-12.446-23.228-21.764-32.542-0.004 0 0 0.004 0 0l-238.656-238.656c-9.318-9.318-20.382-16.708-32.559-21.751-12.177-5.047-25.225-7.642-38.404-7.642s-26.227 2.594-38.404 7.642c-12.177 5.043-23.241 12.433-32.559 21.751l-442.875 442.944c-0.001 0 0.001-0.004 0 0-18.807 18.799-29.383 44.301-29.393 70.895v238.98c0 8.837 7.163 16 16 16s16-7.163 16-16v-238.972c0 0.004 0 0 0 0 0.009-18.103 7.208-35.473 20.015-48.273l442.885-442.948c6.345-6.345 13.879-11.379 22.174-14.814 8.294-3.439 17.182-5.205 26.159-5.205s17.865 1.766 26.159 5.205c8.294 3.435 15.829 8.469 22.174 14.818l238.656 238.656c6.353 6.34 11.396 13.879 14.839 22.174 3.439 8.29 5.21 17.178 5.218 26.155 0.004 8.977-1.762 17.865-5.193 26.159s-8.461 15.834-14.801 22.182c-0.004 0 0 0 0 0l-443.008 443.264c-6.349 6.364-13.901 11.424-22.204 14.868zM606.494 562.695c6.246-6.249 6.246-16.379 0-22.627l-186.881-186.882c-6.249-6.246-16.379-6.246-22.628 0-6.248 6.251-6.248 16.38 0 22.63l186.879 186.879c6.251 6.248 16.38 6.248 22.63 0zM664.030 505.161c6.246-6.251 6.246-16.38 0-22.63l-115.008-115.008c-6.251-6.246-16.38-6.246-22.63 0-6.246 6.251-6.246 16.38 0 22.63l115.008 115.008c6.251 6.246 16.38 6.246 22.63 0zM721.498 447.689c6.251-6.246 6.251-16.375 0.004-22.626l-115.008-115.072c-6.246-6.251-16.375-6.251-22.626-0.004s-6.251 16.375-0.004 22.626l115.008 115.072c6.246 6.251 16.375 6.251 22.626 0.004zM807.774 361.348c6.246-6.251 6.246-16.38-0.004-22.626l-115.072-115.008c-6.251-6.246-16.38-6.246-22.626 0.004s-6.246 16.38 0.004 22.626l115.072 115.008c6.251 6.246 16.38 6.246 22.626-0.004zM491.422 332.617c6.246-6.251 6.246-16.38 0-22.63l-14.336-14.336c-6.251-6.246-16.38-6.246-22.63 0-6.246 6.251-6.246 16.38 0 22.63l14.336 14.336c6.251 6.246 16.38 6.246 22.63 0zM549.047 275.055c6.234-6.263 6.208-16.393-0.051-22.63l-14.4-14.336c-6.263-6.234-16.393-6.208-22.63 0.051-6.234 6.263-6.208 16.393 0.051 22.63l14.4 14.336c6.263 6.234 16.393 6.208 22.63-0.051zM635.23 188.873c6.246-6.251 6.246-16.38 0-22.63l-14.4-14.4c-6.251-6.246-16.38-6.246-22.63 0-6.246 6.251-6.246 16.38 0 22.63l14.4 14.4c6.251 6.246 16.38 6.246 22.63 0zM227.753 832.79c0.033-8.836-7.103-16.027-15.939-16.061-18.101-0.069-35.436-7.314-48.201-20.148s-19.918-30.234-19.89-48.336c0.014-8.837-7.14-15.983-15.977-15.996s-16.009 7.159-16.023 15.996c-0.041 26.575 10.461 52.061 29.203 70.903s44.192 29.48 70.767 29.581c8.837 0.033 16.027-7.103 16.061-15.939z" />
<glyph unicode="&#xe91a;" glyph-name="braspag-color" d="M949.021 415.755c-8.73 0.062-17.213 2.88-24.235 8.046-6.102 4.76-11.037 10.842-14.43 17.784s-5.158 14.562-5.158 22.283c0 7.721 1.765 15.341 5.158 22.283s8.328 13.023 14.43 17.784c6.995 5.216 15.498 8.039 24.235 8.047 7.371-0.031 14.6-2.027 20.934-5.78 7.107-4.518 12.933-10.778 16.917-18.18s5.995-15.699 5.838-24.096c-0.054-5.632-1.014-11.219-2.843-16.548-2.65-8.855-8.011-16.663-15.336-22.333-7.323-5.67-16.243-8.917-25.51-9.288zM992.826 530.909c-2.814 2.171-5.781 4.141-8.875 5.894-10.378 5.969-22.15 9.111-34.133 9.111s-23.757-3.142-34.134-9.111c-12.744-7.541-23.258-18.308-30.472-31.208s-10.872-27.472-10.602-42.237c-0.256-14.777 3.406-29.359 10.619-42.275 7.211-12.917 17.717-23.707 30.454-31.283 10.44-5.8 22.181-8.88 34.134-8.955h6.371c13.659 1.333 26.63 6.611 37.318 15.189v-11.334c0.56-12.096-3.69-23.923-11.826-32.92-8.136-8.995-19.502-14.434-31.637-15.138l11.378-33.322h1.934c17.157 4.197 32.426 13.958 43.403 27.747 10.979 13.787 17.043 30.821 17.24 48.418v136.803l-31.174 14.621zM247.808 552.897c-21.459-0.739-41.747-9.923-56.421-25.539s-22.534-36.389-21.858-57.767v-73.899h32.653v73.899c-0.37 12.442 4.203 24.526 12.723 33.63 8.522 9.104 20.304 14.492 32.789 14.993v34.682zM623.162 416.888c-6.029 0.232-11.95 1.654-17.422 4.187-5.47 2.533-10.382 6.123-14.448 10.563-4.064 4.44-7.203 9.641-9.234 15.301-2.029 5.659-2.909 11.664-2.587 17.665-0.182 7.781 1.523 15.49 4.97 22.475s8.533 13.038 14.827 17.648c6.8 5.081 15.053 7.861 23.552 7.934 8.581 0.002 16.942-2.695 23.894-7.707 6.178-4.685 11.186-10.728 14.634-17.658s5.242-14.56 5.242-22.295c0-7.735-1.794-15.364-5.242-22.295s-8.456-12.974-14.634-17.658c-6.91-5.133-15.275-7.95-23.894-8.046l0.342-0.114zM660.48 535.329c-11.651 7.604-25.325 11.552-39.253 11.334-11.168-0.232-22.106-3.19-31.858-8.614-3.606-1.923-7.034-4.16-10.24-6.687l-31.29-11.334v-183.273l31.29 12.014v49.53l1.592-1.133c11.595-8.747 25.627-13.696 40.163-14.168h2.048c13.346 0.128 26.376 4.061 37.547 11.334 11.699 7.709 21.262 18.229 27.805 30.589 6.542 12.362 9.853 26.164 9.629 40.136 0.147 13.895-3.2 27.607-9.739 39.882s-16.059 22.723-27.694 30.39zM322.901 416.661c-6.048 0.218-11.992 1.634-17.483 4.166-5.493 2.533-10.422 6.131-14.501 10.586-4.080 4.453-7.226 9.673-9.256 15.353s-2.901 11.706-2.563 17.725c-0.384 6.047 0.453 12.109 2.461 17.829s5.146 10.98 9.229 15.471c4.085 4.491 9.030 8.12 14.546 10.674s11.49 3.981 17.568 4.196c6.029-0.232 11.95-1.655 17.422-4.188 5.47-2.532 10.382-6.123 14.446-10.563 4.066-4.44 7.205-9.641 9.235-15.3 2.029-5.659 2.909-11.664 2.587-17.665 0-4.987 0-33.322 0-33.322-12.571-9.536-27.891-14.782-43.691-14.962zM322.901 546.664c-41.414 0-75.093-36.609-75.093-81.832s34.133-81.833 75.093-81.833c15.878 0.048 31.275 5.44 43.691 15.301h31.63v66.192c0 45.223-34.133 82.172-75.322 82.172zM784.157 416.774c-6.067 0.205-12.035 1.598-17.562 4.102s-10.502 6.069-14.645 10.49c-4.142 4.421-7.368 9.612-9.496 15.277-2.126 5.664-3.112 11.691-2.899 17.735-0.306 6.031 0.624 12.061 2.73 17.723s5.346 10.839 9.523 15.215c4.178 4.376 9.203 7.861 14.774 10.242s11.57 3.609 17.63 3.609c6.062 0 12.061-1.228 17.632-3.609s10.597-5.866 14.774-10.242c4.176-4.376 7.416-9.553 9.523-15.215s3.035-11.692 2.728-17.723c0-4.987 0-33.208 0-33.208-13.011-9.37-28.659-14.406-44.714-14.395zM784.157 545.87c-20.966-0.798-40.768-9.805-55.106-25.063s-22.051-35.537-21.467-56.429c-0.584-20.892 7.13-41.17 21.467-56.429s34.139-24.266 55.106-25.064c16.179 0.006 31.901 5.347 44.714 15.189h31.859v66.304c0.584 20.892-7.13 41.17-21.467 56.429s-34.141 24.265-55.106 25.063zM31.858 464.378c-0.368 12.198 4.13 24.044 12.511 32.945s19.96 14.131 32.204 14.545c6.005 0.018 11.944-1.258 17.408-3.74 5.596-2.649 10.608-6.378 14.748-10.969s7.326-9.955 9.372-15.78c1.984-5.449 2.985-11.205 2.958-17.001 0.009-6.036-1.070-12.025-3.186-17.681-3.232-9.146-9.235-17.068-17.18-22.668-7.749-5.475-17.14-8.154-26.624-7.594-11.858 1.093-22.844 6.674-30.696 15.592s-11.974 20.496-11.515 32.351zM81.465 545.757c-6.314 0.342-12.647 0-18.887-1.020-9.289-2.11-18.092-5.956-25.941-11.334-1.593-1.133-3.186-2.153-4.779-3.4v49.983l-31.858 12.014v-173.413l31.858-20.514c3.273-2.402 6.693-4.597 10.24-6.574 8.73-4.69 18.334-7.544 28.217-8.387h6.258c20.965 0.798 40.768 9.805 55.105 25.064s22.052 35.536 21.467 56.428c0.619 20.085-6.436 39.657-19.741 54.761s-31.867 24.617-51.939 26.618v-0.227zM485.717 481.379c0 0-25.6 2.947-30.606 4.307-8.987 2.494-14.563 8.501-12.97 16.548 0.938 3.542 3.037 6.671 5.965 8.889 2.926 2.218 6.514 3.398 10.192 3.352 1.699 0.225 3.421 0.225 5.12 0l46.307-7.367-3.528 32.416-34.93 5.78-6.598 0.793c-2.504 0-4.893 0-7.395 0-10.741-0.278-21.075-4.154-29.333-11.002s-13.957-16.268-16.179-26.74c-2.184-12.249 0.603-24.861 7.75-35.063 7.149-10.202 18.070-17.159 30.365-19.341 1.226-0.352 2.483-0.58 3.755-0.68l26.397-3.514c5.008-0.651 9.558-3.24 12.666-7.206s4.526-8.991 3.946-13.989c-1.077-4.109-3.518-7.734-6.928-10.286-3.408-2.552-7.582-3.88-11.845-3.768-1.928-0.224-3.875-0.224-5.803 0l-58.027 10.202 4.438-34.003 47.672-8.046c1.955-0.355 3.931-0.582 5.917-0.68h6.827c11.443 0.179 22.483 4.242 31.294 11.515 8.813 7.275 14.872 17.326 17.174 28.494 1.896 10.208 0.613 20.75-3.678 30.211s-11.386 17.388-20.328 22.718c-5.358 3.283-11.382 5.335-17.637 6.007z" />
<glyph unicode="&#xe91b;" glyph-name="calendar" d="M245.995 933.333c8.837 0 16-7.163 16-16v-203.328c0-8.837-7.163-16-16-16s-16 7.163-16 16v203.328c0 8.837 7.163 16 16 16zM774.635 933.333c8.836 0 16-7.163 16-16v-203.328c0-8.837-7.164-16-16-16s-16 7.163-16 16v203.328c0 8.837 7.164 16 16 16zM42.667 811.349c8.837 0 16-7.163 16-16v-146.688h903.296v146.688c0 8.837 7.164 16 16 16s16-7.163 16-16v-161.248c0.043-0.474 0.064-0.955 0.064-1.44s-0.021-0.966-0.064-1.44v-608.544h-16c16 0 16 0.009 16 0v-0.158l-0.004-0.218-0.013-0.614c-0.017-0.486-0.047-1.126-0.102-1.894-0.111-1.54-0.32-3.631-0.734-6.097-0.811-4.855-2.458-11.58-5.914-18.496-3.49-6.976-8.977-14.443-17.502-20.126-8.627-5.751-19.413-9.037-32.371-9.037h-854.016v16c0-16 0.008-16 0-16h-0.157l-0.833 0.017c-0.486 0.017-1.126 0.047-1.897 0.102-1.536 0.111-3.627 0.32-6.094 0.734-4.858 0.811-11.58 2.458-18.495 5.918-6.978 3.486-14.443 8.973-20.127 17.498-5.751 8.627-9.037 19.413-9.037 32.371v772.672c0 8.837 7.163 16 16 16zM58.667 616.661v-593.984c0-7.36 1.794-11.819 3.663-14.618 1.935-2.906 4.631-5.039 7.813-6.63 3.244-1.621 6.682-2.513 9.445-2.974 1.343-0.226 2.427-0.329 3.113-0.38 0.34-0.026 0.574-0.034 0.683-0.038-0.009 0 0.013 0 0 0h853.939c7.36 0 11.819 1.792 14.622 3.661 2.901 1.937 5.035 4.634 6.626 7.817 1.626 3.243 2.513 6.682 2.974 9.442 0.226 1.344 0.329 2.428 0.38 3.115 0.026 0.341 0.034 0.572 0.038 0.683v593.907h-903.296zM67.307 835.99c0 8.836 7.164 16 16 16h854.016c8.836 0 16-7.164 16-16s-7.164-16-16-16h-854.016c-8.836 0-16 7.163-16 16zM921.323 835.99c0 8.836 7.164 16 16 16v-16c0 16-0.009 16 0 16l0.158-0.001 0.218-0.003 0.614-0.015c0.486-0.016 1.126-0.047 1.899-0.102 1.536-0.11 3.627-0.321 6.093-0.733 4.855-0.81 11.58-2.459 18.496-5.917 6.976-3.489 14.443-8.974 20.126-17.501 5.751-8.627 9.037-19.411 9.037-32.37 0-8.837-7.164-16-16-16s-16 7.163-16 16c0 7.36-1.792 11.817-3.661 14.62-1.937 2.903-4.634 5.039-7.812 6.629-3.247 1.623-6.686 2.513-9.446 2.974-1.344 0.224-2.428 0.329-3.115 0.378-0.341 0.024-0.572 0.034-0.683 0.038-0.021 0.001-0.038 0.001-0.051 0.002-8.777 0.069-15.872 7.206-15.872 16zM99.448 835.99c0 8.836-7.163 16-16 16v-16c0 16 0.008 16 0 16h-0.14l-0.234-0.003-0.615-0.015c-0.486-0.016-1.126-0.047-1.897-0.102-1.537-0.11-3.628-0.321-6.095-0.733-4.858-0.81-11.579-2.459-18.495-5.917-6.978-3.489-14.443-8.974-20.128-17.501-5.751-8.627-9.037-19.41-9.037-32.37 0-8.837 7.163-16 16-16s16 7.163 16 16c0 7.36 1.794 11.817 3.663 14.62 1.935 2.903 4.631 5.039 7.813 6.629 3.244 1.623 6.682 2.513 9.445 2.974 1.343 0.224 2.427 0.329 3.113 0.378 0.34 0.024 0.574 0.034 0.683 0.038 0.023 0.001 0.040 0.001 0.051 0.002 8.778 0.069 15.872 7.206 15.872 16z" />
<glyph unicode="&#xe91c;" glyph-name="calendar-clock" d="M249.115 943.132v-68.889h396.607v68.889c0 9.316 7.582 16.868 16.934 16.868 9.357 0 16.939-7.552 16.939-16.868v-68.889h155.281c15.902 0 31.155-6.291 42.398-17.489 11.247-11.198 17.562-26.386 17.562-42.223v-278.658c0-9.315-7.582-16.867-16.939-16.867-9.353 0-16.934 7.552-16.934 16.867v90.277h-827.087v-411.849c0-6.886 2.748-13.495 7.64-18.368 4.892-4.868 11.526-7.607 18.444-7.607h344.371c9.354 0 16.937-7.552 16.937-16.866 0-9.318-7.583-16.87-16.937-16.87h-344.371c-15.902 0-31.152 6.293-42.397 17.489-11.244 11.2-17.561 26.389-17.561 42.223v600.229c0 15.837 6.317 31.025 17.561 42.223s26.495 17.489 42.397 17.489h155.282v68.889c0 9.316 7.583 16.868 16.937 16.868s16.937-7.552 16.937-16.868zM860.962 659.886v154.645c0 6.889-2.748 13.497-7.642 18.368-4.89 4.871-11.524 7.608-18.445 7.608h-155.281v-111.733c0-9.316-7.582-16.868-16.939-16.868-9.353 0-16.934 7.552-16.934 16.868v111.733h-396.607v-111.733c0-9.316-7.583-16.868-16.937-16.868s-16.937 7.552-16.937 16.868v111.733h-155.282c-6.918 0-13.552-2.737-18.444-7.608s-7.64-11.479-7.64-18.368v-154.645h827.087zM765.705 342.903c0 9.318-7.582 16.87-16.939 16.87-9.353 0-16.934-7.552-16.934-16.87v-128.602c0-9.314 7.582-16.866 16.934-16.866h86.11c9.357 0 16.939 7.552 16.939 16.866 0 9.318-7.582 16.87-16.939 16.87h-69.171v111.731zM748.732 492.608c-36.523 0-72.678-7.241-106.368-21.295-33.685-14.054-64.226-34.65-89.843-60.574-25.617-25.929-45.794-56.674-59.362-90.445-13.53-33.69-20.211-69.713-19.661-105.993-0.55-36.275 6.131-72.303 19.661-105.988 13.568-33.771 33.745-64.516 59.362-90.445s56.158-46.519 89.843-60.574c33.69-14.054 69.845-21.295 106.368-21.295 36.527 0 72.683 7.241 106.372 21.295 33.685 14.054 64.226 34.645 89.843 60.574s45.794 56.674 59.362 90.445c13.53 33.685 20.211 69.713 19.661 105.988 0.55 36.279-6.131 72.303-19.661 105.993-13.568 33.771-33.745 64.516-59.362 90.445-25.617 25.924-56.158 46.519-89.843 60.574-33.69 14.054-69.845 21.295-106.372 21.295zM655.454 440.196c29.542 12.326 61.252 18.675 93.278 18.675 32.030 0 63.74-6.349 93.282-18.675 29.538-12.326 56.324-30.383 78.784-53.12 22.464-22.737 40.162-49.698 52.058-79.313s17.758-61.295 17.237-93.188v-0.546c0.521-31.893-5.342-63.569-17.237-93.184s-29.594-56.58-52.058-79.313c-22.46-22.737-49.246-40.798-78.784-53.124-29.542-12.322-61.252-18.671-93.282-18.671-32.026 0-63.735 6.349-93.278 18.671-29.538 12.326-56.324 30.387-78.788 53.124-22.46 22.733-40.158 49.698-52.053 79.313s-17.758 61.291-17.237 93.184v0.546c-0.521 31.893 5.342 63.573 17.237 93.188s29.594 56.576 52.053 79.313c22.464 22.737 49.25 40.794 78.788 53.12z" />
<glyph unicode="&#xe91d;" glyph-name="cart" d="M32.086 918.229c0 8.837 7.163 16 16 16h15.445c22.429-0.010 44.181-7.73 61.595-21.866s29.44-33.828 34.062-55.776l136.235-647.039c3.109-14.767 11.2-28.015 22.916-37.525 11.714-9.51 26.34-14.703 41.427-14.711-0.002 0 0.003 0 0 0h465.194c8.836 0 16-7.164 16-16s-7.164-16-16-16h-465.194c-22.429 0.009-44.18 7.731-61.595 21.867s-29.44 33.826-34.062 55.774l-136.235 647.041c0 0 0 0 0 0-3.109 14.766-11.2 28.015-22.916 37.524-11.714 9.509-26.34 14.703-41.428 14.711h-15.445c-8.836 0-16 7.163-16 16zM304.243 112.013c9.518 4.019 19.743 6.084 30.073 6.084s20.556-2.065 30.073-6.084c9.517-4.015 18.134-9.894 25.341-17.297 7.207-7.398 12.86-16.166 16.623-25.788 3.712-9.489 5.513-19.618 5.3-29.803 0.213-10.185-1.588-20.309-5.3-29.798-3.764-9.621-9.416-18.389-16.623-25.792-7.208-7.398-15.824-13.278-25.341-17.297-9.518-4.015-19.743-6.084-30.073-6.084s-20.556 2.069-30.073 6.084c-9.518 4.019-18.134 9.899-25.341 17.297-7.208 7.403-12.86 16.171-16.624 25.792-3.712 9.489-5.513 19.614-5.3 29.798-0.213 10.185 1.588 20.314 5.3 29.803 3.764 9.621 9.416 18.389 16.624 25.788 7.207 7.403 15.824 13.282 25.341 17.297zM334.316 86.097c-6.057 0-12.052-1.212-17.632-3.567s-10.632-5.803-14.858-10.142c-4.226-4.339-7.54-9.481-9.746-15.121s-3.261-11.665-3.102-17.719c0.008-0.282 0.008-0.563 0-0.845-0.16-6.054 0.895-12.079 3.102-17.719s5.521-10.782 9.746-15.121c4.226-4.339 9.278-7.787 14.858-10.142s11.576-3.567 17.632-3.567c6.057 0 12.052 1.212 17.632 3.567s10.633 5.803 14.858 10.142c4.226 4.339 7.54 9.481 9.747 15.121s3.261 11.665 3.101 17.719c-0.007 0.282-0.007 0.563 0 0.845 0.16 6.054-0.895 12.079-3.101 17.719s-5.521 10.782-9.747 15.121c-4.226 4.339-9.278 7.787-14.858 10.142s-11.575 3.567-17.632 3.567zM713.118 112.013c9.519 4.019 19.742 6.084 30.071 6.084s20.557-2.065 30.076-6.084c9.515-4.015 18.133-9.894 25.34-17.297 7.206-7.398 12.86-16.166 16.623-25.788 3.712-9.489 5.513-19.618 5.299-29.803 0.213-10.185-1.587-20.309-5.299-29.798-3.763-9.621-9.417-18.389-16.623-25.792-7.206-7.398-15.825-13.278-25.34-17.297-9.519-4.015-19.746-6.084-30.076-6.084s-20.553 2.069-30.071 6.084c-9.519 4.019-18.133 9.899-25.34 17.297-7.211 7.403-12.86 16.171-16.627 25.792-3.712 9.489-5.513 19.614-5.299 29.798-0.213 10.185 1.587 20.314 5.299 29.803 3.767 9.621 9.417 18.389 16.627 25.788 7.206 7.403 15.821 13.282 25.34 17.297zM743.189 86.097c-6.054 0-12.049-1.212-17.63-3.567s-10.633-5.803-14.861-10.142c-4.224-4.339-7.539-9.481-9.745-15.121s-3.26-11.665-3.102-17.719c0.009-0.282 0.009-0.563 0-0.845-0.158-6.054 0.896-12.079 3.102-17.719s5.521-10.782 9.745-15.121c4.228-4.339 9.28-7.787 14.861-10.142s11.575-3.567 17.63-3.567c6.059 0 12.053 1.212 17.634 3.567s10.633 5.803 14.857 10.142c4.228 4.339 7.539 9.481 9.749 15.121 2.206 5.641 3.26 11.665 3.102 17.719-0.009 0.282-0.009 0.563 0 0.845 0.158 6.054-0.896 12.079-3.102 17.719-2.21 5.641-5.521 10.782-9.749 15.121-4.224 4.339-9.276 7.787-14.857 10.142s-11.575 3.567-17.634 3.567zM946.039 695.2c-3.43 1.694-7.202 2.574-11.029 2.571h-742.364l87.941-417.749h491.633c23.394 0.009 46.144 7.706 64.734 21.914 18.59 14.204 31.996 34.129 38.148 56.704l83.925 307.714c1.007 3.691 1.148 7.566 0.414 11.32-0.738 3.755-2.325 7.29-4.651 10.33s-5.316 5.502-8.751 7.197zM934.985 729.771c8.747 0.007 17.382-2.005 25.225-5.878 7.846-3.873 14.69-9.504 20.002-16.455 5.316-6.95 8.951-15.033 10.633-23.619s1.357-17.443-0.943-25.884l-83.925-307.71c-8-29.346-25.425-55.249-49.591-73.715-24.171-18.47-53.739-28.48-84.156-28.489h-504.624c-7.566 0-14.098 5.299-15.657 12.706l-94.677 449.747c-0.993 4.719 0.195 9.633 3.232 13.377s7.603 5.919 12.425 5.919h762.057z" />
<glyph unicode="&#xe91e;" glyph-name="cart-package" d="M882.65 933.333h77.35c8.836 0 16-7.163 16-16s-7.164-16-16-16h-77.338c-14.865-0.027-29.274-5.109-40.862-14.408-11.593-9.301-19.669-22.267-22.903-36.763l-145.323-653.546c2.163-0.768 4.305-1.596 6.426-2.487 14.49-6.106 27.61-15.049 38.592-26.304 10.978-11.255 19.597-24.589 25.335-39.223 5.696-14.511 8.452-29.999 8.111-45.581 0.341-15.578-2.415-31.070-8.111-45.577-5.739-14.635-14.357-27.972-25.335-39.223-10.982-11.255-24.102-20.198-38.592-26.304-14.494-6.106-30.059-9.25-45.786-9.25s-31.292 3.145-45.781 9.25c-14.494 6.106-27.614 15.049-38.596 26.304-10.978 11.251-19.593 24.589-25.335 39.223-3.554 9.058-5.965 18.496-7.189 28.105l-352.278 74.163c-10.65 2.24-21.694 1.788-32.127-1.306-10.432-3.098-19.925-8.747-27.622-16.431l-29.975-29.956c-6.251-6.246-16.381-6.242-22.627 0.009s-6.243 16.38 0.007 22.626l29.975 29.956c11.462 11.447 25.603 19.861 41.134 24.469 15.531 4.612 31.967 5.282 47.821 1.946l345.431-72.721c1.126 10.364 3.622 20.553 7.45 30.298 5.743 14.635 14.357 27.968 25.335 39.223 10.982 11.255 24.102 20.198 38.596 26.304 14.49 6.106 30.054 9.25 45.781 9.25 2.679 0 5.355-0.094 8.021-0.273l145.425 654.013c4.821 21.594 16.853 40.915 34.112 54.764s38.746 21.413 60.877 21.449zM643.507 170.876c-3.081 0.333-6.182 0.503-9.293 0.503-11.456 0-22.801-2.291-33.357-6.741-10.56-4.45-20.117-10.961-28.113-19.162-8-8.196-14.272-17.907-18.458-28.565-4.181-10.658-6.187-22.042-5.897-33.485 0.009-0.269 0.009-0.538 0-0.806-0.021-0.951-0.030-1.903-0.026-2.854 0.034-0.503 0.043-1.007 0.026-1.519 0.256-9.963 2.249-19.814 5.897-29.111 4.186-10.658 10.458-20.369 18.458-28.57 7.996-8.196 17.553-14.711 28.113-19.157 10.556-4.45 21.901-6.741 33.357-6.741 11.46 0 22.801 2.291 33.357 6.741 10.56 4.446 20.117 10.961 28.117 19.157 7.996 8.201 14.272 17.911 18.453 28.57 4.181 10.654 6.187 22.042 5.897 33.485-0.004 0.175-0.004 0.354-0.004 0.533 0 0.094 0 0.183 0.004 0.273 0.29 11.443-1.715 22.827-5.897 33.485s-10.458 20.369-18.453 28.565c-8 8.201-17.557 14.711-28.117 19.162-2.743 1.156-5.547 2.167-8.388 3.034-2.662-0.892-5.594-1.092-8.533-0.439-2.752 0.61-5.175 1.894-7.142 3.644zM260.050 855.492c12.754 7.868 28.105 10.371 42.699 6.964l0.080-0.018 97.711-23.345c0.38-0.062 0.76-0.139 1.14-0.23 0.382-0.091 0.757-0.195 1.126-0.312l155.53-37.159c1.51 0.061 3.051-0.093 4.587-0.483 1.382-0.351 2.675-0.873 3.866-1.536l92.553-22.112c14.575-3.489 27.183-12.604 35.059-25.353s10.385-28.098 6.972-42.691l-0.017-0.070-94.421-395.863c-2.052-8.593-10.679-13.901-19.277-11.849-8.593 2.048-13.901 10.679-11.849 19.277l94.404 395.789c1.476 6.344 0.388 13.044-3.038 18.588-3.43 5.553-8.922 9.527-15.279 11.049l-81.434 19.456-31.219-122.877c-1.638-6.492-5.043-12.415-9.826-17.098-4.787-4.686-10.773-7.959-17.301-9.46s-13.342-1.174-19.695 0.948c-6.353 2.121-11.998 5.955-16.311 11.079l-0.064 0.073-31.808 38.238-45.125-19.663c-6.186-2.648-12.986-3.529-19.642-2.546s-12.911 3.791-18.069 8.114c-5.158 4.323-9.015 9.992-11.144 16.377s-2.444 13.235-0.91 19.789l0.017 0.070 29.313 122.778-83.204 19.879c-6.355 1.474-13.071 0.388-18.621-3.037-5.559-3.429-9.53-8.915-11.053-15.257l-122.962-514.629c-0.752-3.153-0.877-6.43-0.364-9.63s1.651-6.272 3.351-9.033c1.7-2.765 3.929-5.167 6.559-7.070s5.611-3.273 8.771-4.023l292.846-69.743c8.593-2.048 13.905-10.675 11.857-19.273s-10.675-13.905-19.273-11.857l-292.846 69.743c-7.246 1.724-14.083 4.86-20.116 9.229-6.034 4.365-11.149 9.877-15.053 16.222s-6.518 13.397-7.695 20.749c-1.177 7.356-0.892 14.869 0.837 22.114l122.965 514.643c3.494 14.573 12.619 27.18 25.374 35.049zM409.801 803.979l-29.296-122.703c-0.178-0.781-0.144-1.617 0.11-2.378 0.256-0.767 0.72-1.45 1.342-1.972s1.379-0.862 2.185-0.981c0.795-0.117 1.607-0.015 2.348 0.295l55.976 24.392c6.524 2.842 14.14 1.035 18.692-4.436l39.428-47.399c0.516-0.605 1.212-1.085 1.971-1.338 0.768-0.257 1.591-0.297 2.385-0.115 0.789 0.182 1.51 0.578 2.091 1.143 0.576 0.565 0.986 1.277 1.182 2.058l31.117 122.486-129.531 30.947z" />
<glyph unicode="&#xe91f;" glyph-name="chat" d="M60.235 841.846c-6.846 0-13.413-2.593-18.254-7.21s-7.561-10.877-7.561-17.405v-574.359c0-6.528 2.72-12.787 7.561-17.404s11.408-7.211 18.254-7.211h258.151c9.505 0 17.21-7.347 17.21-16.41v-124.484l142.722 136.085c3.226 3.081 7.603 4.809 12.169 4.809h473.276c6.848 0 13.414 2.594 18.257 7.211 4.838 4.617 7.561 10.876 7.561 17.404v574.359c0 6.528-2.722 12.789-7.561 17.405-4.843 4.617-11.409 7.21-18.257 7.21h-903.528zM17.642 857.844c11.296 10.771 26.617 16.823 42.593 16.823h903.528c15.979 0 31.296-6.051 42.594-16.823s17.643-25.38 17.643-40.613v-574.359c0-15.232-6.345-29.841-17.643-40.614-11.298-10.769-26.615-16.819-42.594-16.819h-466.146l-167.061-159.296c-4.922-4.693-12.324-6.097-18.755-3.558s-10.624 8.525-10.624 15.159v147.695h-240.941c-15.975 0-31.296 6.050-42.593 16.819-11.296 10.773-17.642 25.382-17.642 40.614v574.359c0 15.233 6.346 29.842 17.642 40.613z" />
<glyph unicode="&#xe920;" glyph-name="check" d="M981.359 921.030c7.181-5.151 8.823-15.147 3.674-22.327l-660.032-919.998c-2.738-3.819-7.015-6.238-11.697-6.622s-9.295 1.31-12.617 4.634l-260.032 260.032c-6.248 6.246-6.248 16.38 0 22.626 6.248 6.251 16.379 6.251 22.627 0l246.705-246.703 649.044 904.685c5.15 7.18 15.147 8.825 22.327 3.674z" />
<glyph unicode="&#xe921;" glyph-name="check-circle" d="M259.433 419.307c5.517 6.903 15.585 8.026 22.488 2.509l167.594-133.935c2.513-1.997 5.406-3.477 8.495-4.339 3.093-0.866 6.327-1.101 9.515-0.691 3.23 0.41 6.366 1.476 9.173 3.127 2.803 1.651 5.244 3.853 7.172 6.477 5.231 7.121 15.245 8.653 22.366 3.422s8.653-15.245 3.422-22.366c-4.497-6.123-10.189-11.264-16.738-15.117-6.545-3.849-13.807-6.327-21.342-7.283-7.433-0.956-14.959-0.405-22.178 1.609-7.215 2.018-13.956 5.461-19.819 10.129l-167.638 133.969c-6.903 5.517-8.027 15.586-2.511 22.49zM761.557 642.23c7.113-5.241 8.631-15.257 3.392-22.372l-255.168-346.369c-5.244-7.113-15.258-8.631-22.374-3.392-7.113 5.244-8.631 15.258-3.392 22.374l255.168 346.366c5.244 7.115 15.258 8.633 22.374 3.392zM512-32c-265.097 0-480 214.903-480 480s214.903 480 480 480c265.097 0 480-214.903 480-480s-214.903-480-480-480zM512-64c282.769 0 512 229.231 512 512s-229.231 512-512 512c-282.77 0-512-229.23-512-512s229.23-512 512-512z" />
<glyph unicode="&#xe922;" glyph-name="check-shield" d="M760.981 648.534c7.663 7.147 8.077 19.146 0.922 26.801s-19.166 8.068-26.829 0.921l-291.648-272.011c-4.463-4.309-10.428-6.72-16.636-6.72-6.15 0-12.061 2.364-16.51 6.596l-77.902 78.652c-7.374 7.441-19.392 7.505-26.843 0.141-7.452-7.369-7.515-19.375-0.141-26.82l78.366-79.108c11.543-11.153 26.972-17.387 43.031-17.387 15.996 0 31.369 6.187 42.897 17.259l291.294 271.676zM147.229 960c-16.416 0-32.159-6.515-43.767-18.111s-18.129-27.324-18.129-43.725v-268.342c-0.050-142.372 38.842-282.059 112.474-403.953s179.208-221.376 305.318-287.684c5.534-2.91 12.147-2.914 17.681-0.004 126.123 66.304 231.71 165.777 305.357 287.676 73.643 121.894 112.546 261.581 112.503 403.959v268.349c0 16.4-6.519 32.128-18.129 43.725-11.605 11.596-27.349 18.111-43.767 18.111h-729.541zM130.306 915.071c4.489 4.484 10.576 7.003 16.923 7.003h729.541c6.349 0 12.437-2.519 16.926-7.003s7.010-10.566 7.010-16.907v-268.349c0.038-135.471-36.975-268.381-107.046-384.362-68.343-113.118-165.598-205.943-281.694-268.983-116.082 63.049-213.324 155.878-281.656 268.996-70.059 115.981-107.063 248.879-107.014 384.343v268.356c0 6.342 2.522 12.423 7.010 16.907z" />
<glyph unicode="&#xe923;" glyph-name="close" d="M33.038 927.027c6.248 6.248 16.379 6.248 22.627 0l935.362-935.36c6.246-6.246 6.246-16.38 0-22.626-6.251-6.251-16.38-6.251-22.63 0l-935.359 935.359c-6.248 6.249-6.248 16.379 0 22.627zM990.963 927.027c6.246-6.248 6.246-16.379 0-22.627l-935.36-935.359c-6.249-6.251-16.379-6.251-22.627 0-6.248 6.246-6.248 16.38 0 22.626l935.362 935.36c6.246 6.248 16.375 6.248 22.626 0z" />
<glyph unicode="&#xe924;" glyph-name="coupon" d="M42.472 753.988c10.666 10.666 25.132 16.658 40.216 16.658h858.666c15.083 0 29.551-5.992 40.218-16.658s16.657-25.132 16.657-40.217v-143.104c0-8.836-7.164-16-16-16-28.288 0-55.42-11.238-75.426-31.241-20.002-20.006-31.241-47.134-31.241-75.426 0-28.288 11.238-55.42 31.241-75.426 20.006-20.002 47.138-31.241 75.426-31.241 8.836 0 16-7.164 16-16v-143.104c0-15.083-5.99-29.551-16.657-40.218-10.667-10.662-25.135-16.657-40.218-16.657h-858.666c-15.084 0-29.551 5.995-40.216 16.657-10.666 10.667-16.658 25.135-16.658 40.218v143.104c0 8.836 7.163 16 16 16 28.29 0 55.421 11.238 75.425 31.241 20.004 20.006 31.242 47.138 31.242 75.426 0 28.292-11.238 55.42-31.242 75.426-20.004 20.003-47.135 31.241-75.425 31.241-8.837 0-16 7.164-16 16v143.104c0 15.084 5.992 29.551 16.658 40.217zM82.688 738.646c-6.597 0-12.924-2.621-17.589-7.285s-7.286-10.992-7.286-17.589v-128.029c30.886-3.587 59.847-17.484 82.052-39.689 26.005-26.006 40.614-61.274 40.614-98.053 0-36.774-14.609-72.047-40.614-98.052-22.205-22.204-51.166-36.1-82.052-39.689v-128.030c0-6.596 2.621-12.924 7.286-17.587 4.665-4.668 10.992-7.287 17.589-7.287h858.666c6.596 0 12.924 2.62 17.591 7.287 4.663 4.663 7.283 10.991 7.283 17.587v128.030c-30.886 3.588-59.844 17.485-82.052 39.689-26.005 26.005-40.614 61.278-40.614 98.052 0 36.779 14.609 72.047 40.614 98.053 22.208 22.205 51.166 36.102 82.052 39.689v128.029c0 6.597-2.62 12.924-7.283 17.589-4.668 4.665-10.995 7.285-17.591 7.285h-858.666zM686.899 622.897c6.246-6.249 6.246-16.379 0-22.627l-327.127-327.126c-6.249-6.246-16.379-6.246-22.627 0-6.249 6.251-6.249 16.38 0 22.626l327.124 327.127c6.251 6.249 16.38 6.249 22.63 0zM359.282 643.556c9.517 4.016 19.743 6.085 30.073 6.085s20.556-2.069 30.073-6.085c9.518-4.016 18.136-9.898 25.343-17.298s12.86-16.169 16.623-25.789c3.712-9.489 5.513-19.616 5.299-29.801 0.213-10.184-1.587-20.312-5.299-29.801-3.763-9.62-9.417-18.388-16.623-25.791-7.206-7.398-15.825-13.278-25.343-17.297-9.517-4.015-19.743-6.084-30.073-6.084s-20.556 2.069-30.073 6.084c-9.518 4.019-18.134 9.899-25.342 17.297-7.207 7.403-12.86 16.171-16.623 25.791-3.712 9.489-5.513 19.617-5.3 29.801-0.213 10.185 1.587 20.312 5.3 29.801 3.764 9.62 9.416 18.389 16.623 25.789s15.824 13.282 25.342 17.298zM389.355 617.641c-6.057 0-12.052-1.213-17.632-3.568s-10.633-5.803-14.858-10.142c-4.226-4.339-7.54-9.48-9.747-15.121s-3.261-11.665-3.101-17.72c0.007-0.281 0.007-0.562 0-0.844-0.16-6.055 0.895-12.080 3.101-17.72s5.521-10.782 9.747-15.121c4.226-4.341 9.278-7.788 14.858-10.144s11.576-3.567 17.632-3.567c6.057 0 12.052 1.212 17.632 3.567s10.633 5.803 14.858 10.144c4.226 4.339 7.539 9.48 9.745 15.121 2.21 5.64 3.264 11.665 3.102 17.72-0.004 0.281-0.004 0.562 0 0.844 0.162 6.055-0.892 12.080-3.102 17.72-2.206 5.641-5.519 10.782-9.745 15.121s-9.278 7.788-14.858 10.142c-5.58 2.355-11.576 3.568-17.632 3.568zM604.617 398.217c9.515 4.015 19.742 6.084 30.071 6.084s20.557-2.069 30.071-6.084c9.519-4.015 18.138-9.899 25.344-17.297s12.86-16.171 16.623-25.788c3.712-9.489 5.513-19.618 5.299-29.803 0.213-10.185-1.587-20.309-5.299-29.798-3.763-9.621-9.417-18.389-16.623-25.792-7.206-7.398-15.825-13.282-25.344-17.297-9.515-4.015-19.742-6.084-30.071-6.084s-20.557 2.069-30.071 6.084c-9.519 4.015-18.138 9.899-25.344 17.297-7.206 7.403-12.86 16.171-16.623 25.792-3.712 9.485-5.513 19.614-5.299 29.798-0.213 10.185 1.587 20.314 5.299 29.803 3.763 9.617 9.417 18.389 16.623 25.788s15.825 13.282 25.344 17.297zM634.688 372.301c-6.059 0-12.053-1.212-17.634-3.567-5.577-2.355-10.633-5.803-14.857-10.142s-7.539-9.481-9.745-15.121c-2.21-5.641-3.264-11.665-3.102-17.719 0.004-0.282 0.004-0.563 0-0.845-0.162-6.054 0.892-12.079 3.102-17.719 2.206-5.641 5.521-10.782 9.745-15.121s9.28-7.787 14.857-10.142c5.581-2.355 11.575-3.567 17.634-3.567s12.053 1.212 17.634 3.567c5.577 2.355 10.633 5.803 14.857 10.142s7.539 9.481 9.745 15.121c2.21 5.641 3.264 11.665 3.102 17.719-0.004 0.282-0.004 0.563 0 0.845 0.162 6.054-0.892 12.079-3.102 17.719-2.206 5.641-5.521 10.782-9.745 15.121s-9.28 7.787-14.857 10.142c-5.581 2.355-11.575 3.567-17.634 3.567z" />
<glyph unicode="&#xe925;" glyph-name="credit-2-cards" d="M226.998 481.536c0-0.004 0 0.004 0 0v-425.779c0-15.13 3.535-25.404 8.011-32.516 4.512-7.172 10.571-12.062 16.98-15.458 6.49-3.439 13.157-5.235 18.324-6.148 2.548-0.448 4.634-0.666 6.015-0.772 0.688-0.051 1.193-0.073 1.484-0.085l0.263-0.004h636.318c13.756 0 23.027 3.584 29.504 8.158 6.63 4.681 11.328 11.11 14.656 18.163 3.345 7.091 5.099 14.387 5.99 20.058 0.439 2.795 0.653 5.090 0.759 6.63 0.051 0.768 0.073 1.34 0.085 1.681l0.009 0.333v425.792c0 15.13-3.537 25.404-8.013 32.516-4.51 7.172-10.569 12.062-16.977 15.458-6.49 3.439-13.158 5.233-18.325 6.146-2.547 0.45-4.634 0.668-6.016 0.772-0.687 0.052-1.195 0.075-1.485 0.086l-0.243 0.007c0.009 0 0.055 0 0.055 16v-16h-636.394c-13.754 0-23.025-3.585-29.505-8.159-6.627-4.681-11.325-11.11-14.652-18.163-3.347-7.091-5.1-14.387-5.992-20.058-0.44-2.795-0.654-5.090-0.758-6.63-0.052-0.768-0.075-1.34-0.086-1.681l-0.008-0.346zM210.998 481.587c-16 0-16 0.009-16 0.017v0.153l0.003 0.277 0.020 0.853c0.022 0.7 0.064 1.651 0.143 2.825 0.158 2.342 0.467 5.594 1.074 9.455 1.202 7.637 3.636 18.086 8.664 28.74 5.048 10.697 12.913 22.013 25.13 30.642 12.364 8.733 28.219 14.022 47.966 14.022h636.394v-16c0 16-0.009 16 0 16l0.183-0.001 0.282-0.004 0.853-0.023c0.691-0.024 1.626-0.070 2.769-0.157 2.283-0.173 5.431-0.509 9.165-1.169 7.394-1.306 17.481-3.946 27.738-9.382 10.342-5.478 21.035-13.896 29.086-26.69 8.085-12.851 12.928-29.197 12.928-49.562v-425.83h-16c16 0 16 0.009 16 0v-0.171l-0.004-0.277-0.021-0.853c-0.021-0.7-0.064-1.651-0.141-2.825-0.158-2.347-0.469-5.594-1.075-9.455-1.203-7.637-3.635-18.086-8.666-28.74-5.047-10.697-12.911-22.012-25.131-30.643-12.365-8.734-28.22-14.020-47.966-14.020h-636.394v15.97c0-15.97 0.009-15.97 0-15.97h-0.183l-0.282 0.004-0.852 0.021c-0.691 0.026-1.625 0.073-2.769 0.158-2.283 0.171-5.431 0.508-9.165 1.169-7.395 1.306-17.479 3.947-27.739 9.382-10.342 5.474-21.033 13.892-29.085 26.688-8.087 12.851-12.927 29.197-12.927 49.562v425.847l16-0.017zM194.998 410.603c0 8.836 7.163 16 16 16h770.399c8.836 0 16-7.164 16-16s-7.164-16-16-16h-770.399c-8.837 0-16 7.164-16 16zM764.425 268.676c0 8.836 7.164 16 16 16h100.489c8.836 0 16-7.164 16-16s-7.164-16-16-16h-100.489c-8.836 0-16 7.164-16 16zM295.484 268.676c0 8.836 7.163 16 16 16h267.972c8.836 0 16-7.164 16-16s-7.164-16-16-16h-267.972c-8.837 0-16 7.164-16 16zM295.484 162.219c0 8.836 7.163 16 16 16h100.485c8.837 0 15.999-7.164 15.999-16s-7.162-16-15.999-16h-100.485c-8.837 0-16 7.164-16 16zM58.604 833.224c0-0.011 0-0.020 0-0.027v-467.766c0-32.026 16.008-48.567 32.419-57.92 8.503-4.847 17.159-7.723 23.785-9.374 3.281-0.815 5.979-1.31 7.795-1.596 0.906-0.145 1.585-0.235 2-0.282l0.417-0.047c0.026-0.004 0.042-0.004 0.047-0.009l-0.034 0.004h-0.012c8.795-0.785 15.291-8.55 14.512-17.348-0.78-8.802-8.547-15.305-17.35-14.524l1.412 15.936c-1.412-15.936-1.42-15.936-1.428-15.936l-0.017 0.004h-0.041l-0.105 0.013-0.298 0.030-0.937 0.107c-0.771 0.090-1.832 0.235-3.141 0.439-2.613 0.41-6.242 1.084-10.554 2.159-8.561 2.129-20.152 5.926-31.898 12.621-24.085 13.726-48.573 39.765-48.573 85.722v467.815h16c-16 0-16 0.008-16 0.016v0.058l0.001 0.103 0.003 0.292 0.022 0.914c0.024 0.751 0.069 1.782 0.156 3.053 0.173 2.537 0.511 6.064 1.176 10.256 1.318 8.306 3.985 19.639 9.479 31.177 5.515 11.582 14.075 23.765 27.317 33.036 13.382 9.368 30.579 15.077 52.111 15.077h705.382v-16c0 16 0.009 16 0.017 16h0.064l0.107-0.001 0.299-0.004 0.909-0.024c0.742-0.026 1.754-0.075 2.995-0.168 2.475-0.186 5.905-0.549 9.975-1.261 8.064-1.412 19.046-4.264 30.208-10.124 11.238-5.901 22.848-14.961 31.595-28.742 8.789-13.843 14.097-31.52 14.097-53.66v-228.354c0-8.837-7.164-16-16-16s-16 7.163-16 16v228.354c0 16.851-3.972 28.419-9.109 36.508-5.175 8.153-12.134 13.714-19.46 17.561-7.403 3.888-14.989 5.91-20.847 6.935-2.897 0.506-5.269 0.753-6.852 0.871-0.789 0.059-1.374 0.086-1.719 0.099l-0.337 0.009h-705.322c-15.601 0-26.254-4.038-33.759-9.292-7.645-5.352-13.009-12.664-16.777-20.578-3.789-7.958-5.764-16.12-6.767-22.436-0.495-3.119-0.737-5.684-0.855-7.412-0.058-0.861-0.085-1.506-0.098-1.897l-0.010-0.39zM26.604 755.261c0 8.836 7.163 16 16 16h853.913c8.836 0 16-7.164 16-16s-7.164-16-16-16h-853.913c-8.837 0-16 7.163-16 16z" />
<glyph unicode="&#xe926;" glyph-name="credit-card" d="M57.941 693.282c0-0.012 0 0.007 0 0v-490.615c0-17.647 4.366-29.82 10.093-38.413 5.794-8.687 13.633-14.682 21.959-18.846 8.388-4.194 16.971-6.37 23.591-7.475 3.272-0.542 5.964-0.811 7.775-0.939 0.903-0.064 1.579-0.094 1.989-0.107l0.409-0.013h776.851c17.647 0 29.82 4.365 38.413 10.091 8.687 5.794 14.682 13.636 18.846 21.961 4.194 8.388 6.37 16.973 7.475 23.59 0.542 3.273 0.811 5.965 0.939 7.774 0.064 0.905 0.094 1.579 0.107 1.993l0.013 0.405v490.645c0 17.648-4.365 29.821-10.091 38.411-5.794 8.69-13.636 14.683-21.961 18.846-8.388 4.194-16.973 6.371-23.59 7.474-3.273 0.545-5.965 0.812-7.774 0.941-0.905 0.064-1.579 0.094-1.993 0.108l-0.405 0.011c0.004 0 0.021 0 0.021 16l-0.021-16h-776.853c-17.648 0-29.821-4.366-38.411-10.093-8.69-5.793-14.683-13.632-18.846-21.958-4.195-8.389-6.371-16.971-7.475-23.591-0.545-3.272-0.812-5.964-0.941-7.775-0.064-0.903-0.094-1.579-0.108-1.989l-0.011-0.437zM41.941 693.333c-16 0-16 0.008-16 0.017v0.061l0.001 0.108 0.004 0.306 0.024 0.959c0.026 0.788 0.076 1.869 0.172 3.203 0.19 2.662 0.563 6.36 1.295 10.756 1.453 8.716 4.388 20.582 10.417 32.641 6.061 12.122 15.404 24.731 29.717 34.273 14.414 9.609 32.913 15.467 56.161 15.467h776.875v-16c0 16-0.009 16 0 16h0.077l0.111-0.001 0.303-0.004 0.96-0.024c0.789-0.026 1.869-0.076 3.204-0.172 2.662-0.19 6.362-0.563 10.756-1.295 8.717-1.453 20.582-4.388 32.64-10.417 12.122-6.061 24.73-15.404 34.274-29.718 9.609-14.414 15.467-32.913 15.467-56.161v-490.666h-16c-16 0-16 0.017-16 0.021l16-0.021c16 0 16 0.009 16 0v-0.188l-0.004-0.307-0.026-0.956c-0.026-0.789-0.077-1.869-0.171-3.204-0.192-2.662-0.563-6.362-1.297-10.756-1.451-8.717-4.386-20.582-10.415-32.64-6.063-12.122-15.403-24.73-29.717-34.274-14.413-9.609-32.913-15.467-56.162-15.467h-776.875v16c0 16 0.016 16 0.023 16l-0.023-16c0-16 0.009-16 0-16h-0.186l-0.307 0.004-0.959 0.026c-0.788 0.026-1.869 0.077-3.203 0.171-2.662 0.188-6.36 0.563-10.756 1.293-8.716 1.455-20.582 4.39-32.641 10.419-12.122 6.063-24.731 15.403-34.274 29.717-9.609 14.413-15.467 32.913-15.467 56.162v490.683l16-0.017zM25.941 611.542c0 8.836 7.163 16 16 16h940.459c8.836 0 16-7.164 16-16s-7.164-16-16-16h-940.459c-8.837 0-16 7.163-16 16zM721.067 448c0 8.836 7.164 16 16 16h122.667c8.836 0 16-7.164 16-16s-7.164-16-16-16h-122.667c-8.836 0-16 7.164-16 16zM148.608 448c0 8.836 7.163 16 16 16h327.125c8.836 0 16-7.164 16-16s-7.164-16-16-16h-327.125c-8.837 0-16 7.164-16 16zM148.608 325.333c0 8.836 7.163 16 16 16h122.667c8.837 0 16-7.164 16-16s-7.163-16-16-16h-122.667c-8.837 0-16 7.164-16 16z" />
<glyph unicode="&#xe927;" glyph-name="credit-card-question" d="M85.686 960c-22.718-0.023-44.498-8.637-60.562-23.952s-25.099-36.099-25.124-57.758v-425.584c0-21.675 9.025-42.462 25.091-57.796s37.881-23.957 60.615-23.983h334.836c10.374 0 18.779 8.017 18.779 17.907s-8.405 17.903-18.779 17.903h-334.816c-12.778 0.013-25.029 4.864-34.060 13.483s-14.103 20.301-14.103 32.486v301.248h810.599v-194.887c0-9.889 8.41-17.905 18.782-17.905s18.782 8.017 18.782 17.905v319.242c-0.026 21.674-9.075 42.452-25.156 57.769-16.085 15.317-37.888 23.921-60.621 23.921h-714.263zM848.162 878.272v-88.506h-810.599v88.514c0.016 12.171 5.094 23.839 14.122 32.445s21.266 13.448 34.032 13.463h714.232c12.779 0 25.033-4.836 34.074-13.446s14.127-20.289 14.14-32.471zM740.646 113.758c-9.024 0-16.329-6.997-16.329-15.573 0-8.602 7.305-15.569 16.329-15.569 8.994 0 16.333 6.933 16.333 15.569 0 8.576-7.339 15.573-16.333 15.573zM688.657 257.668c0 24.96 21.747 45.79 49.263 45.79s49.267-20.83 49.267-45.79c0-24.964-21.751-45.79-49.267-45.79-10.372 0-18.782-8.017-18.782-17.907v-28.309c0-9.886 8.41-17.903 18.782-17.903s18.782 8.017 18.782 17.903v12.326c38.72 8.051 68.049 40.457 68.049 79.68 0 45.355-39.219 81.6-86.831 81.6-47.607 0-86.827-36.245-86.827-81.6 0-9.89 8.405-17.907 18.782-17.907 10.372 0 18.782 8.017 18.782 17.907zM737.378 482.513c-56.687 0-112.102-16.026-159.241-46.050-47.134-30.029-83.87-72.704-105.562-122.637-21.696-49.929-27.371-104.87-16.311-157.879 11.059-53.005 38.357-101.696 78.443-139.913s91.153-64.239 146.752-74.782c55.599-10.547 113.233-5.133 165.606 15.548 52.373 20.685 97.135 55.706 128.631 100.642 31.492 44.937 48.303 97.771 48.303 151.817 0 72.469-30.199 141.973-83.951 193.22s-126.656 80.034-202.671 80.034zM599.010 406.686c40.956 26.091 89.109 40.017 138.368 40.017 66.057 0 129.404-25.015 176.111-69.547s72.947-104.926 72.947-167.898c0-46.963-14.605-92.873-41.971-131.921-27.371-39.044-66.266-69.478-111.778-87.45-45.508-17.975-95.586-22.677-143.898-13.513-48.311 9.161-92.689 31.774-127.522 64.981s-58.551 75.516-68.164 121.579c-9.609 46.059-4.676 93.803 14.174 137.186 18.85 43.388 50.773 80.474 91.733 106.564zM643.742 662.090c-10.372 0-18.782-8.017-18.782-17.905s8.41-17.906 18.782-17.906h133.922c10.372 0 18.782 8.017 18.782 17.906s-8.41 17.905-18.782 17.905h-133.922zM89.28 559.068c0 9.889 8.409 17.905 18.781 17.905h133.92c10.373 0 18.781-8.017 18.781-17.905s-8.409-17.906-18.781-17.906h-133.92c-10.373 0-18.781 8.017-18.781 17.906zM108.061 662.090c-10.373 0-18.781-8.017-18.781-17.905s8.409-17.906 18.781-17.906h223.2c10.373 0 18.781 8.017 18.781 17.906s-8.409 17.905-18.781 17.905h-223.2z" />
<glyph unicode="&#xe928;" glyph-name="credit-card-remove" d="M82.443 960c-21.858-0.023-42.814-8.717-58.27-24.173s-24.149-36.431-24.173-58.289v-429.504c0-21.871 8.683-42.85 24.142-58.325s36.447-24.183 58.32-24.205h322.163c9.98 0 18.071 8.090 18.071 18.069s-8.090 18.074-18.071 18.074h-322.144c-12.294 0.013-24.081 4.902-32.77 13.602s-13.57 20.493-13.57 32.785v304.023h779.919v-196.681c0-9.98 8.090-18.071 18.069-18.071s18.069 8.090 18.069 18.071v322.181c-0.021 21.873-8.73 42.843-24.201 58.301-15.475 15.458-36.454 24.142-58.33 24.142h-687.226zM816.060 877.519v-89.321h-779.919v89.329c0.015 12.283 4.902 24.059 13.587 32.744s20.461 13.572 32.744 13.587h687.196c12.297 0 24.085-4.881 32.785-13.57s13.594-20.475 13.606-32.77zM852.058 290.057c7.057 7.057 7.057 18.5 0 25.557s-18.496 7.057-25.553 0l-78.276-78.281-78.281 78.281c-7.057 7.057-18.496 7.057-25.553 0s-7.057-18.5 0-25.557l78.276-78.276-78.276-78.276c-7.057-7.057-7.057-18.5 0-25.557s18.496-7.057 25.553 0l78.281 78.276 78.276-78.276c7.057-7.057 18.496-7.057 25.553 0s7.057 18.5 0 25.557l-78.276 78.276 78.276 78.276zM748.228 487.548c-54.545 0-107.861-16.175-153.212-46.477s-80.7-73.374-101.572-123.763c-20.873-50.394-26.334-105.839-15.693-159.334s36.907-102.635 75.473-141.201c38.571-38.566 87.706-64.832 141.201-75.473s108.945-5.18 159.334 15.693c50.394 20.873 93.461 56.218 123.763 101.568s46.477 98.671 46.477 153.212c0 73.139-29.056 143.283-80.772 195.004-51.716 51.716-121.86 80.772-194.999 80.772zM615.095 411.021c39.407 26.33 85.739 40.384 133.133 40.384 63.552 0 124.506-25.246 169.442-70.187 44.941-44.941 70.187-105.89 70.187-169.446 0-47.394-14.054-93.726-40.384-133.133s-63.757-70.118-107.541-88.256c-43.789-18.138-91.972-22.882-138.453-13.636-46.485 9.246-89.182 32.068-122.697 65.583-33.515 33.51-56.337 76.211-65.583 122.692-9.246 46.485-4.501 94.669 13.636 138.453 18.138 43.789 48.853 81.212 88.26 107.546zM619.379 659.347c-9.984 0-18.074-8.090-18.074-18.071s8.090-18.071 18.074-18.071h128.849c9.98 0 18.069 8.090 18.069 18.071s-8.090 18.071-18.069 18.071h-128.849zM85.9 555.377c0 9.98 8.090 18.071 18.071 18.071h128.852c9.98 0 18.071-8.090 18.071-18.071s-8.091-18.071-18.071-18.071h-128.852c-9.98 0-18.071 8.090-18.071 18.071zM103.971 659.347c-9.98 0-18.071-8.090-18.071-18.071s8.090-18.071 18.071-18.071h214.752c9.98 0 18.071 8.090 18.071 18.071s-8.090 18.071-18.071 18.071h-214.752z" />
<glyph unicode="&#xe929;" glyph-name="delete" d="M529.225 577.053c0 9.533-7.727 17.26-17.259 17.26s-17.259-7.727-17.259-17.26v-451.745c0-9.532 7.727-17.259 17.259-17.259s17.259 7.727 17.259 17.259v451.745zM706.347 594.293c9.523-0.452 16.875-8.538 16.422-18.059l-21.461-451.746c-0.452-9.523-8.538-16.875-18.061-16.422-9.519 0.452-16.87 8.538-16.418 18.061l21.461 451.745c0.452 9.521 8.538 16.873 18.057 16.421zM335.643 577.872c-0.452 9.521-8.537 16.873-18.058 16.421s-16.873-8.538-16.42-18.059l21.462-451.746c0.452-9.523 8.537-16.875 18.058-16.422s16.872 8.538 16.42 18.061l-21.462 451.745zM301.146 899.746c0 15.98 6.348 31.306 17.647 42.606s26.624 17.648 42.603 17.648h301.145c15.979 0 31.305-6.348 42.603-17.648s17.647-26.625 17.647-42.606v-111.791h283.951c9.532 0 17.259-7.727 17.259-17.26s-7.727-17.26-17.259-17.26h-92.045l-76.301-724.93c-2.671-25.391-14.647-48.892-33.617-65.971-18.97-17.084-43.597-26.534-69.124-26.534h-447.382c-25.527 0-50.15 9.451-69.122 26.534-18.971 17.079-30.947 40.58-33.618 65.971l-76.3 724.93h-91.974c-9.532 0-17.258 7.727-17.258 17.26s7.727 17.26 17.258 17.26h283.888v111.791zM361.396 925.481c-6.825 0-13.37-2.711-18.196-7.538s-7.537-11.372-7.537-18.197v-111.791h352.61v111.791c0 6.825-2.709 13.371-7.535 18.197-4.83 4.826-11.375 7.538-18.197 7.538h-301.145zM318.404 753.435h-174.464l75.92-721.316c1.779-16.909 9.754-32.559 22.386-43.93 12.633-11.375 29.029-17.673 46.028-17.673h447.381c16.998 0 33.395 6.298 46.029 17.673 12.634 11.371 20.608 27.021 22.387 43.925l75.917 721.321h-561.583z" />
<glyph unicode="&#xe92a;" glyph-name="delete-circle" d="M723.315 659.315c6.246-6.248 6.246-16.379 0-22.627l-400.002-399.998c-6.248-6.251-16.379-6.251-22.627 0-6.249 6.246-6.249 16.375 0 22.626l399.998 400c6.251 6.249 16.38 6.249 22.63 0zM300.687 659.315c6.248 6.249 16.379 6.249 22.627 0l400.002-400c6.246-6.251 6.246-16.38 0-22.626-6.251-6.251-16.38-6.251-22.63 0l-399.998 399.998c-6.249 6.249-6.249 16.379 0 22.627zM512-32c-265.097 0-480 214.903-480 480s214.903 480 480 480c265.097 0 480-214.903 480-480s-214.903-480-480-480zM512-64c282.769 0 512 229.231 512 512s-229.231 512-512 512c-282.77 0-512-229.23-512-512s229.23-512 512-512z" />
<glyph unicode="&#xe92b;" glyph-name="delivery-truck" d="M573.218 730.667c6.694 0 13.043-2.602 17.668-7.121 4.608-4.507 7.13-10.54 7.13-16.752v-438.732c0-8.836 7.164-16 16-16s16 7.164 16 16v183.411h205.534l120.858-46.029c2.586-2.086 4.693-4.646 6.204-7.514 1.771-3.366 2.684-7.070 2.679-10.816v-74.197h-46.737c-8.836 0-16-7.164-16-16s7.164-16 16-16h46.737v-52.77c0-6.208-2.522-12.241-7.134-16.751-4.625-4.518-10.97-7.121-17.664-7.121h-46.255c-1.097 7.202-3.034 14.276-5.777 21.077-4.8 11.9-11.977 22.72-21.090 31.829-9.109 9.114-19.972 16.333-31.936 21.252-11.964 4.924-24.802 7.454-37.76 7.454s-25.796-2.53-37.76-7.454c-11.964-4.919-22.827-12.139-31.936-21.252-9.114-9.109-16.29-19.93-21.090-31.829-2.743-6.801-4.681-13.875-5.777-21.077h-378.266c-1.099 7.202-3.034 14.276-5.777 21.077-4.802 11.9-11.979 22.72-21.091 31.829-9.111 9.114-19.973 16.333-31.937 21.252-11.964 4.924-24.8 7.454-37.759 7.454s-25.796-2.53-37.76-7.454c-11.965-4.919-22.826-12.139-31.937-21.252-9.112-9.109-16.289-19.93-21.091-31.829-2.743-6.801-4.678-13.875-5.777-21.077h-46.251c-6.694 0-13.042 2.603-17.666 7.121-4.611 4.51-7.133 10.543-7.133 16.751v478.646c0 6.212 2.522 12.245 7.133 16.752 4.624 4.519 10.972 7.121 17.666 7.121h489.753zM997.291 387.102c0.004 8.969-2.185 17.796-6.366 25.737-4.186 7.945-10.231 14.758-17.609 19.9-1.071 0.742-2.231 1.357-3.452 1.822l-117.372 44.702-31.386 160.512c-0.060 0.298-0.124 0.594-0.201 0.889-3.106 12.173-10.274 22.906-20.275 30.535-9.993 7.623-22.263 11.727-34.842 11.723h-135.774v23.873c0 14.938-6.076 29.189-16.764 39.637-10.679 10.436-25.088 16.236-40.034 16.236h-489.753c-14.947 0-29.354-5.8-40.032-16.236-10.691-10.448-16.767-24.698-16.767-39.637v-478.646c0-14.938 6.076-29.188 16.767-39.637 10.678-10.436 25.085-16.235 40.032-16.235h46.251zM819.063 483.473h-189.047v167.447h135.782c5.628 0.003 11.063-1.837 15.424-5.164 4.245-3.239 7.228-7.688 8.58-12.63l29.261-149.654zM129.716 172.275c1.099-7.202 3.033-14.272 5.777-21.073 4.802-11.904 11.979-22.72 21.091-31.834 9.111-9.109 19.973-16.329 31.937-21.248 11.964-4.924 24.801-7.454 37.76-7.454s25.795 2.53 37.759 7.454c11.965 4.919 22.826 12.139 31.937 21.248 9.112 9.114 16.289 19.93 21.091 31.834 2.743 6.801 4.678 13.871 5.777 21.073h378.266c1.097-7.202 3.034-14.272 5.777-21.073 4.8-11.904 11.977-22.72 21.090-31.834 9.109-9.109 19.972-16.329 31.936-21.248 11.964-4.924 24.802-7.454 37.76-7.454s25.796 2.53 37.76 7.454c11.964 4.919 22.827 12.139 31.936 21.248 9.114 9.114 16.29 19.93 21.090 31.834 2.743 6.801 4.681 13.871 5.777 21.073h46.255c14.946 0 29.355 5.798 40.030 16.235 10.692 10.449 16.768 24.7 16.768 39.637v67.593c0.030 0.388 0.043 0.781 0.043 1.178s-0.013 0.789-0.043 1.178v89.007zM797.675 253.888c8.798 0 17.498-1.719 25.583-5.047 8.090-3.328 15.39-8.188 21.487-14.285s10.863-13.299 14.042-21.175c3.179-7.881 4.71-16.286 4.51-24.73-0.004-0.247-0.004-0.499 0-0.747 0.201-8.444-1.331-16.853-4.51-24.73-3.179-7.881-7.945-15.083-14.042-21.175-6.097-6.097-13.397-10.961-21.487-14.285-8.085-3.328-16.785-5.047-25.583-5.047s-17.498 1.719-25.587 5.047c-8.085 3.324-15.386 8.188-21.483 14.285-6.097 6.093-10.863 13.295-14.042 21.175-3.179 7.876-4.71 16.286-4.51 24.73 0.004 0.247 0.004 0.499 0 0.747-0.201 8.444 1.331 16.849 4.51 24.73 3.179 7.876 7.945 15.078 14.042 21.175s13.397 10.957 21.483 14.285c8.090 3.328 16.789 5.047 25.587 5.047zM226.281 253.888c8.797 0 17.497-1.719 25.585-5.047s15.389-8.188 21.485-14.285c6.095-6.097 10.863-13.299 14.041-21.175 3.178-7.881 4.709-16.286 4.511-24.73-0.006-0.247-0.006-0.499 0-0.747 0.198-8.444-1.333-16.853-4.511-24.73-3.179-7.881-7.946-15.083-14.041-21.175-6.096-6.097-13.397-10.961-21.485-14.285-8.088-3.328-16.788-5.047-25.585-5.047s-17.497 1.719-25.585 5.047c-8.087 3.324-15.389 8.188-21.485 14.285-6.095 6.093-10.863 13.295-14.041 21.175-3.178 7.876-4.709 16.286-4.511 24.73 0.006 0.247 0.006 0.499 0 0.747-0.198 8.444 1.333 16.849 4.511 24.73 3.179 7.876 7.946 15.078 14.041 21.175 6.096 6.097 13.398 10.957 21.485 14.285s16.788 5.047 25.585 5.047z" />
<glyph unicode="&#xe92c;" glyph-name="descending-sort" d="M26.667 704c0 8.837 7.163 16 16 16h304.568c8.836 0 16-7.163 16-16s-7.164-16-16-16h-304.568c-8.837 0-16 7.163-16 16zM26.667 448c0 8.836 7.163 16 16 16h617.412c8.836 0 16-7.164 16-16s-7.164-16-16-16h-617.412c-8.837 0-16 7.164-16 16zM26.667 192c0 8.836 7.163 16 16 16h938.667c8.836 0 16-7.164 16-16s-7.164-16-16-16h-938.667c-8.837 0-16 7.164-16 16z" />
<glyph unicode="&#xe92d;" d="M18.521 439.846c0 250.262 191.304 453.141 427.295 453.141s427.294-202.879 427.294-453.141c0-250.249-191.305-453.137-427.294-453.137s-427.295 202.889-427.295 453.137z" />
<glyph unicode="&#xe92e;" d="M704.247 448.823c-0.188 116.032-68.591 215.010-164.945 254.186v-508.364c96.354 39.232 164.757 138.108 164.945 254.178zM355.422 194.735v508.237c-96.286-39.321-164.583-138.152-164.834-254.148 0.25-115.981 68.548-214.814 164.834-254.089zM447.403 878.516c-223.774-0.091-405.065-192.389-405.108-429.693 0.043-237.286 181.334-429.547 405.108-429.594 223.782 0.047 405.133 192.307 405.184 429.594-0.051 237.304-181.402 429.601-405.184 429.693zM446.417-21.329c-244.882-1.233-446.417 209.152-446.417 465.254 0 279.875 201.535 473.455 446.417 473.408h114.752c241.975 0.047 462.831-193.451 462.831-473.408 0-256.009-220.855-465.254-462.831-465.254h-114.752z" />
<glyph unicode="&#xe92f;" glyph-name="discount-bubble" d="M384.090 661.655c-10.878 0-21.646-2.179-31.668-6.408s-19.096-10.422-26.686-18.215c-7.59-7.793-13.542-17.026-17.505-27.156-3.909-9.992-5.805-20.657-5.581-31.381-0.224-10.724 1.672-21.389 5.581-31.381 3.963-10.13 9.915-19.365 17.505-27.156s16.663-13.986 26.686-18.214c10.022-4.228 20.79-6.409 31.668-6.409s21.646 2.18 31.668 6.409c10.022 4.228 19.097 10.423 26.688 18.214 7.586 7.791 13.538 17.026 17.502 27.156 3.913 9.993 5.807 20.657 5.581 31.381 0.226 10.724-1.668 21.389-5.581 31.381-3.964 10.13-9.916 19.364-17.502 27.156-7.59 7.793-16.665 13.986-26.688 18.215s-20.79 6.408-31.668 6.408zM365.522 624.201c5.876 2.479 12.19 3.757 18.568 3.757s12.691-1.277 18.567-3.757c5.876-2.48 11.197-6.111 15.647-10.68s7.94-9.983 10.262-15.922c2.325-5.94 3.435-12.284 3.268-18.66-0.009-0.296-0.009-0.592 0-0.888 0.166-6.376-0.943-12.721-3.268-18.66-2.322-5.94-5.812-11.354-10.262-15.922s-9.77-8.201-15.647-10.681c-5.876-2.479-12.189-3.755-18.567-3.755s-12.691 1.276-18.568 3.755c-5.876 2.481-11.196 6.112-15.646 10.681s-7.94 9.983-10.263 15.922c-2.324 5.939-3.434 12.284-3.266 18.66 0.008 0.296 0.008 0.592 0 0.888-0.168 6.376 0.943 12.72 3.266 18.66s5.814 11.354 10.263 15.922c4.45 4.569 9.77 8.2 15.646 10.68zM697.412 609.627c6.579 6.58 6.579 17.248 0 23.827s-17.246 6.58-23.829 0l-344.472-344.469c-6.58-6.579-6.58-17.25 0-23.829s17.248-6.579 23.828 0l344.474 344.471zM610.765 396.907c10.022 4.228 20.791 6.404 31.671 6.404 10.876 0 21.645-2.176 31.667-6.404s19.093-10.423 26.684-18.214c7.59-7.795 13.542-17.028 17.506-27.157 3.908-9.993 5.803-20.659 5.581-31.381 0.222-10.726-1.673-21.389-5.581-31.381-3.964-10.129-9.916-19.362-17.506-27.157-7.59-7.791-16.661-13.986-26.684-18.214s-20.791-6.409-31.667-6.409c-10.88 0-21.649 2.18-31.671 6.409s-19.093 10.423-26.684 18.214c-7.59 7.795-13.542 17.028-17.506 27.157-3.908 9.993-5.803 20.655-5.581 31.381-0.222 10.722 1.673 21.389 5.581 31.381 3.964 10.129 9.916 19.362 17.506 27.157 7.59 7.791 16.661 13.986 26.684 18.214zM642.436 369.617c-6.379 0-12.693-1.28-18.569-3.759s-11.196-6.11-15.646-10.679c-4.45-4.57-7.94-9.984-10.266-15.923-2.321-5.939-3.435-12.284-3.264-18.658l0.004-0.341-0.004-0.546c-0.171-6.379 0.943-12.723 3.264-18.662 2.325-5.939 5.815-11.354 10.266-15.919 4.45-4.57 9.771-8.201 15.646-10.684 5.875-2.479 12.19-3.755 18.569-3.755 6.374 0 12.689 1.276 18.564 3.755 5.879 2.483 11.196 6.114 15.646 10.684 4.45 4.565 7.94 9.98 10.266 15.919s3.435 12.284 3.264 18.662c-0.004 0.294-0.004 0.593 0 0.887 0.171 6.374-0.939 12.719-3.264 18.658s-5.815 11.354-10.266 15.923c-4.45 4.57-9.766 8.201-15.646 10.679-5.875 2.479-12.19 3.759-18.564 3.759zM512.004 960c-37.922 0-74.965-11.432-106.291-32.803-26.698-18.213-48.189-42.924-62.521-71.684-30.467 10.207-63.134 12.489-94.889 6.493-37.263-7.036-71.538-25.142-98.352-51.956s-44.921-61.089-51.957-98.351c-5.996-31.755-3.714-64.422 6.494-94.889-28.76-14.332-53.472-35.822-71.685-62.52-21.371-31.326-32.803-68.369-32.803-106.292s11.432-74.965 32.803-106.291c18.213-26.697 42.924-48.188 71.685-62.519-10.208-30.468-12.489-63.134-6.494-94.891 7.036-37.261 25.143-71.535 51.957-98.351 26.814-26.812 61.090-44.919 98.352-51.955 31.755-5.995 64.422-3.712 94.889 6.494 14.332-28.762 35.823-53.47 62.521-71.684 31.326-21.372 68.369-32.802 106.291-32.802 37.926 0 74.965 11.43 106.295 32.802 26.697 18.214 48.188 42.923 62.519 71.684 30.468-10.206 63.134-12.489 94.891-6.494 37.261 7.036 71.539 25.143 98.351 51.955 26.816 26.816 44.919 61.090 51.955 98.351 5.999 31.765 3.716 64.439-6.502 94.916 28.732 14.37 53.414 35.87 71.616 62.558 21.359 31.313 32.811 68.322 32.87 106.223v0.060c-0.073 37.892-11.529 74.889-32.883 106.19-18.202 26.681-42.88 48.175-71.603 62.541 10.219 30.474 12.501 63.15 6.502 94.914-7.036 37.262-25.139 71.537-51.955 98.351-26.812 26.814-61.090 44.92-98.351 51.956-31.757 5.996-64.422 3.714-94.891-6.493-14.332 28.76-35.823 53.471-62.519 71.684-31.33 21.371-68.369 32.803-106.295 32.803zM424.703 899.361c25.729 17.553 56.155 26.942 87.302 26.942 31.151 0 61.572-9.389 87.305-26.942s45.572-42.455 56.934-71.456c1.673-4.266 5.009-7.667 9.242-9.42 4.237-1.753 8.998-1.706 13.197 0.129 28.535 12.476 60.173 16.059 90.773 10.281 30.605-5.778 58.756-20.649 80.781-42.672 22.020-22.022 36.89-50.173 42.671-80.776 5.777-30.604 2.193-62.238-10.283-90.774-1.83-4.193-1.882-8.951-0.132-13.181 1.745-4.23 5.137-7.567 9.395-9.244 28.971-11.414 53.845-31.27 71.394-56.994 17.545-25.717 26.957-56.109 27.021-87.238-0.055-31.134-9.468-61.534-27.008-87.258-17.549-25.728-42.428-45.594-71.407-57.007-4.258-1.681-7.65-5.018-9.395-9.246-1.749-4.228-1.698-8.99 0.132-13.18 12.476-28.535 16.060-60.173 10.283-90.773-5.781-30.605-20.651-58.756-42.671-80.777-22.025-22.025-50.176-36.894-80.781-42.671-30.601-5.781-62.238-2.197-90.773 10.278-4.198 1.835-8.96 1.882-13.197 0.128-4.233-1.749-7.569-5.154-9.242-9.417-11.362-29.001-31.202-53.905-56.934-71.458s-56.154-26.94-87.305-26.94c-31.147 0-61.572 9.387-87.302 26.94s-45.573 42.458-56.936 71.458c-1.672 4.262-5.008 7.667-9.241 9.417-4.233 1.754-8.998 1.707-13.196-0.128-28.536-12.476-60.171-16.060-90.775-10.278-30.604 5.777-58.754 20.646-80.777 42.671-22.022 22.020-36.893 50.172-42.672 80.777-5.778 30.601-2.196 62.238 10.281 90.773 1.836 4.198 1.882 8.96 0.129 13.193-1.753 4.237-5.154 7.573-9.42 9.242-29.001 11.366-53.903 31.206-71.456 56.939-17.553 25.728-26.942 56.154-26.942 87.3s9.389 61.572 26.942 87.302c17.553 25.731 42.455 45.572 71.456 56.936 4.266 1.671 7.667 5.008 9.42 9.241s1.706 8.997-0.129 13.195c-12.476 28.536-16.059 60.171-10.281 90.774s20.649 58.754 42.672 80.776c22.023 22.022 50.173 36.893 80.777 42.672s62.239 2.195 90.775-10.281c4.198-1.835 8.963-1.882 13.196-0.129s7.569 5.154 9.241 9.42c11.363 29.001 31.206 53.903 56.936 71.456z" />
<glyph unicode="&#xe930;" glyph-name="discount-circle" d="M382.854 660.326c-10.877 0-21.645-2.179-31.667-6.407s-19.095-10.422-26.685-18.214c-7.59-7.792-13.541-17.026-17.504-27.156-3.909-9.992-5.805-20.657-5.581-31.38-0.224-10.724 1.672-21.389 5.581-31.38 3.963-10.13 9.915-19.363 17.504-27.158 7.59-7.791 16.663-13.982 26.685-18.214 10.022-4.228 20.789-6.404 31.667-6.404s21.645 2.176 31.667 6.404c10.022 4.233 19.096 10.423 26.687 18.214 7.586 7.795 13.538 17.028 17.502 27.158 3.908 9.992 5.807 20.656 5.581 31.38 0.226 10.724-1.673 21.388-5.581 31.38-3.964 10.13-9.916 19.363-17.502 27.156-7.59 7.792-16.665 13.986-26.687 18.214s-20.789 6.407-31.667 6.407zM364.287 622.874c5.876 2.479 12.189 3.757 18.567 3.757s12.691-1.277 18.567-3.757c5.876-2.479 11.196-6.111 15.645-10.679s7.94-9.982 10.261-15.922c2.325-5.939 3.435-12.284 3.268-18.659-0.009-0.296-0.009-0.593 0-0.889 0.166-6.375-0.943-12.72-3.268-18.659-2.321-5.939-5.811-11.353-10.261-15.922s-9.769-8.2-15.645-10.678c-5.876-2.479-12.189-3.759-18.567-3.759s-12.691 1.28-18.567 3.759c-5.876 2.478-11.196 6.109-15.646 10.678s-7.939 9.983-10.263 15.922c-2.324 5.94-3.434 12.284-3.266 18.659 0.008 0.296 0.008 0.593 0 0.889-0.168 6.376 0.943 12.72 3.266 18.659s5.813 11.353 10.263 15.922c4.45 4.569 9.77 8.2 15.646 10.679zM696.166 608.341c6.579 6.58 6.579 17.247 0 23.827s-17.246 6.58-23.825 0l-344.464-344.462c-6.58-6.579-6.58-17.25 0-23.829s17.247-6.579 23.826 0l344.463 344.465zM609.523 395.584c10.022 4.228 20.791 6.404 31.667 6.404s21.645-2.176 31.667-6.404c10.022-4.228 19.093-10.423 26.684-18.214 7.59-7.795 13.542-17.028 17.506-27.157 3.908-9.993 5.803-20.655 5.581-31.381 0.222-10.722-1.673-21.389-5.581-31.377-3.964-10.133-9.916-19.366-17.506-27.157s-16.661-13.986-26.684-18.214c-10.022-4.228-20.791-6.409-31.667-6.409s-21.645 2.18-31.667 6.409c-10.022 4.228-19.093 10.423-26.684 18.214s-13.542 17.024-17.506 27.157c-3.908 9.988-5.803 20.655-5.581 31.377-0.222 10.726 1.673 21.389 5.581 31.381 3.964 10.129 9.916 19.362 17.506 27.157 7.59 7.791 16.661 13.986 26.684 18.214zM641.19 368.294c-6.379 0-12.689-1.276-18.569-3.759-5.875-2.479-11.196-6.11-15.646-10.679-4.45-4.565-7.936-9.98-10.261-15.919s-3.435-12.284-3.268-18.662c0.009-0.294 0.009-0.589 0-0.887-0.166-6.374 0.943-12.719 3.268-18.658s5.811-11.354 10.261-15.923c4.45-4.57 9.771-8.201 15.646-10.679 5.879-2.479 12.19-3.755 18.569-3.755s12.689 1.276 18.569 3.755c5.875 2.479 11.196 6.11 15.646 10.679s7.936 9.984 10.261 15.923c2.325 5.939 3.435 12.284 3.268 18.658-0.009 0.299-0.009 0.593 0 0.887 0.166 6.379-0.943 12.723-3.268 18.662s-5.811 11.354-10.261 15.919c-4.45 4.57-9.771 8.201-15.646 10.679-5.879 2.483-12.19 3.759-18.569 3.759zM512 960c-135.791 0-266.020-53.943-362.039-149.961s-149.961-226.248-149.961-362.039c0-67.238 13.243-133.815 38.974-195.934s63.444-118.562 110.988-166.106c47.543-47.543 103.986-85.257 166.105-110.989 62.119-25.728 128.695-38.972 195.934-38.972s133.815 13.244 195.934 38.972c62.118 25.732 118.562 63.445 166.106 110.989s85.257 103.987 110.989 166.106c25.728 62.118 38.972 128.695 38.972 195.934 0 135.791-53.943 266.020-149.961 362.039-96.021 96.019-226.249 149.961-362.039 149.961zM173.788 786.212c89.699 89.699 211.358 140.092 338.212 140.092 126.852 0 248.512-50.393 338.21-140.092 89.702-89.699 140.092-211.358 140.092-338.212 0-62.81-12.369-125.009-36.407-183.040-24.034-58.031-59.268-110.758-103.684-155.17-44.412-44.416-97.139-79.65-155.17-103.684-58.031-24.038-120.226-36.407-183.040-36.407s-125.009 12.369-183.039 36.407c-58.031 24.034-110.758 59.268-155.173 103.684-44.415 44.412-79.646 97.139-103.683 155.17s-36.409 120.226-36.409 183.040c0 126.854 50.393 248.512 140.092 338.212z" />
<glyph unicode="&#xe931;" glyph-name="dollar" d="M506.304 603.969h85.696c8.836 0 16-7.164 16-16s-7.164-16-16-16h-85.683c-13.090-0.020-25.788-4.454-36.045-12.584-10.261-8.132-17.481-19.488-20.489-32.23-3.004-12.745-1.626-26.125 3.917-37.986 5.542-11.866 14.921-21.508 26.624-27.379l78.003-39.031c18.142-9.101 32.695-24.055 41.284-42.441 8.589-18.389 10.726-39.134 6.067-58.884s-15.846-37.355-31.753-49.958c-15.902-12.608-35.593-19.477-55.889-19.507h-86.037c-8.837 0-16 7.164-16 16s7.163 16 16 16h85.995c-0.004 0 0.004 0 0 0 13.086 0.021 25.801 4.454 36.053 12.587 10.261 8.132 17.481 19.486 20.484 32.226 3.008 12.745 1.63 26.129-3.913 37.99-5.538 11.857-14.916 21.5-26.615 27.371-0.004 0.004 0 0 0 0l-78.012 39.040c-18.142 9.097-32.695 24.055-41.285 42.441-8.591 18.385-10.728 39.13-6.067 58.882 4.661 19.751 15.846 37.353 31.753 49.958 15.902 12.605 35.618 19.478 55.91 19.506zM492.16 283.968c8.836 0 16-7.164 16-16v-60.032c0-8.836-7.164-16-16-16s-16 7.164-16 16v60.032c0 8.836 7.164 16 16 16zM532.16 664c8.836 0 16-7.163 16-16v-60.032c0-8.837-7.164-16-16-16s-16 7.163-16 16v60.032c0 8.837 7.164 16 16 16zM328.694 892.684c58.12 24.275 120.479 36.775 183.464 36.775 62.989 0 125.346-12.5 183.467-36.775s110.844-59.843 155.119-104.643c44.275-44.8 79.219-97.94 102.805-156.343 23.565-58.344 35.328-120.782 34.611-183.698 0.717-62.916-11.046-125.355-34.611-183.697-23.586-58.402-58.53-111.543-102.805-156.343s-96.998-80.367-155.119-104.64c-58.121-24.277-120.478-36.779-183.467-36.779-62.985 0-125.344 12.501-183.464 36.779-58.12 24.273-110.845 59.84-155.119 104.64s-79.218 97.941-102.806 156.343c-23.564 58.342-35.328 120.781-34.611 183.697-0.717 62.916 11.046 125.354 34.611 183.698 23.588 58.402 58.531 111.543 102.806 156.343s96.999 80.367 155.119 104.643zM512.158 897.458c-58.752 0-116.918-11.66-171.131-34.303s-103.394-55.82-144.692-97.609c-41.298-41.788-73.893-91.356-95.895-145.833s-32.975-112.779-32.282-171.527l0.005-0.375h-0.005c-0.693-58.748 10.28-117.047 32.282-171.524s54.597-104.047 95.895-145.835c41.298-41.788 90.479-74.965 144.692-97.609s112.379-34.304 171.131-34.304c58.752 0 116.919 11.661 171.136 34.304 54.212 22.643 103.39 55.821 144.691 97.609 41.297 41.788 73.89 91.358 95.893 145.835s32.977 112.777 32.282 171.524l-0.004 0.375h0.004c0.695 58.748-10.278 117.050-32.282 171.527s-54.596 104.045-95.893 145.833c-41.301 41.788-90.479 74.965-144.691 97.609-54.217 22.643-112.384 34.303-171.136 34.303z" />
<glyph unicode="&#xe932;" glyph-name="duplicate-false" d="M61.313 960c-16.261 0-31.856-6.46-43.355-17.958s-17.958-27.094-17.958-43.355v-612.62c0-16.26 6.46-31.855 17.958-43.354s27.094-17.958 43.355-17.958h175.034c9.695 0 17.554 7.859 17.554 17.553 0 9.698-7.859 17.557-17.554 17.557h-175.034c-6.95 0-13.615 2.761-18.529 7.671-4.914 4.915-7.675 11.58-7.675 18.53v612.62c0 6.95 2.761 13.615 7.675 18.529s11.579 7.675 18.529 7.675h612.62c6.95 0 13.615-2.761 18.53-7.675s7.676-11.579 7.676-18.529v-175.034c0-9.695 7.859-17.554 17.553-17.554s17.553 7.859 17.553 17.554v175.034c0 16.261-6.46 31.856-17.958 43.355s-27.093 17.958-43.354 17.958h-612.62zM336.68 623.32c-8.206-8.207-12.817-19.337-12.817-30.942v-612.619c0-11.605 4.611-22.737 12.817-30.942s19.337-12.817 30.942-12.817h612.62c11.605 0 22.737 4.612 30.942 12.817s12.817 19.337 12.817 30.942v612.619c0 11.606-4.612 22.736-12.817 30.942s-19.337 12.817-30.942 12.817h-612.62c-11.605 0-22.735-4.611-30.942-12.817z" />
<glyph unicode="&#xe933;" glyph-name="duplicate-true" d="M60.279 960c-15.987 0-31.319-6.351-42.624-17.655s-17.655-26.637-17.655-42.624v-602.295c0-15.987 6.351-31.317 17.655-42.624 11.305-11.302 26.637-17.655 42.624-17.655h172.084c9.532 0 17.259 7.727 17.259 17.259s-7.727 17.259-17.259 17.259h-172.084c-6.833 0-13.385 2.714-18.217 7.548-4.831 4.83-7.546 11.383-7.546 18.214v602.295c0 6.833 2.714 13.385 7.546 18.217s11.384 7.546 18.217 7.546h602.295c6.831 0 13.385-2.714 18.214-7.546 4.834-4.832 7.548-11.384 7.548-18.217v-172.084c0-9.532 7.727-17.258 17.259-17.258s17.259 7.727 17.259 17.258v172.084c0 15.987-6.353 31.319-17.655 42.624-11.307 11.305-26.637 17.655-42.624 17.655h-602.295zM361.426 658.853c-15.987 0-31.319-6.351-42.624-17.655s-17.655-26.637-17.655-42.624v-602.294c0-15.987 6.351-31.317 17.655-42.624s26.637-17.655 42.624-17.655h602.295c15.987 0 31.317 6.349 42.624 17.655s17.655 26.637 17.655 42.624v602.294c0 15.987-6.349 31.319-17.655 42.624s-26.637 17.655-42.624 17.655h-602.295zM343.209 616.791c4.832 4.832 11.384 7.546 18.217 7.546h602.295c6.831 0 13.385-2.714 18.219-7.546 4.83-4.832 7.543-11.384 7.543-18.217v-602.294c0-6.831-2.714-13.385-7.543-18.219-4.834-4.83-11.388-7.543-18.219-7.543h-602.295c-6.833 0-13.385 2.714-18.217 7.543-4.832 4.834-7.546 11.388-7.546 18.219v602.294c0 6.833 2.714 13.385 7.546 18.217z" />
</font>
</defs>
</svg>
